&title=深昏睡
&artist=春野
&first=0.06
&des=Deep Coma
&lv_5=12
&inote_5=(131){4},,,,E5/B4/B5/Ch[4:1],,E7/E3,,D1,
{8}E1,C,
{32}B6/B3,B5/B4,E5,D5,,,,,
{4},5<4[8:16],,4,,,,5,,4<2>3[8:16],,3,,,
{8},E7,B6/E6,B5,E5,A4,
{4}3<8>1>2[8:16],,2,,,,3,,2>6<7>8>1[8:16],,1,,
{8},E5,B4,B3,E3/D3,B2,B1,,
{4}1<2[8:16],,2,,,,1,,2<4>3[8:16],,3,,,,2,,3>6>5>4[8:16],,4,,,,3,,4>8<7<6>5[8:16],,5,,,,4,,5p4[8:16],4h[2:1],,,,,E3/A2/D3,,4p3[8:16],3h[2:1],,,,,E1/A1,
{8}2,2,3<1[8:7],,,,
{4}2,
{8},1q6>2[8:9],,,,3h[8:3],,,,,
2p1[8:4],,,,1p8[8:4],,,,8<5p3[8:7],,,,2h[4:1],,,,
{4}1p8[8:16],8h[2:1],,,,,A6/E6/D6,,8p7[1:2],7h[2:1],,,,,A5/E5,
{8}6,6,7<8[8:7],,,,7,,,8q2>6[8:9],,,,7x,,,7,,6pp8[8:4],,,,8pp2[8:4],,,,2pp4[8:4],,,,4p3[8:4]*p3[8:4],,,,3xq8[8:4],,,,8<4[8:4],,,,4>2qq6[8:8],,8h[8:2],,,,,,6p4>1[8:8],,,,8,,,,1qq6[8:6],,7h[8:2],,,,6>8[8:6],,E7/B7/E8,,,,8q5[8:4],,,,5p4>8[8:8],,6<8[8:1]*<8[8:1],,,,,,8p6>2[8:8],,,,7,,,,2q8[8:4],,,,8q6[8:4],,,,6<4[8:6],,,,5,,4p6[8:4],,5,,6qq2[8:6],,E8/B8/E1,,8x,,2<4[8:6],,,,6,,4pp1[8:6],E6,,E1,,,1>5[8:4],,C,,5<1[8:4],,C,,1>6[8:4],,C,,6pp3[4:3],,C,,6h[4:1],,,
,D3,,,,B2/B3,,,,E1/C/E5,,,,B7/B6/E7/D7f,,,,4x/5<8[8:2],,,2,1pp1[8:4],,8-5[8:1],,8x,,4<7[8:2],,C,,,,4>1[8:2]/5,,,7,8>2-6<8[8:5],,2v4[8:2],,,,,,
1>3q4[8:5],D8,D7,D6,5x,,5p3[8:3],6h[4:1],,,6p4[8:3],7h[4:1],,,7p5[8:3],8h[4:1],,,8p6[8:3],1h[4:1],,,1,1<5-1[8:3]*>5-1[8:3],,,,,,E8/D8,E7/D7,E6/D6,4/5x<8[8:2],3,2>6p1[16:8],1,2x,,8q2[8:3],7h[4:1],,,7p4[8:3],6h[4:1],,,6q8[8:3],5h[4:1],,,5pp1[8:6]
,4pp3[8:4],,,,,,,2x,2q5[8:4],,,,,C,,,,
{8}1v3<5[8:3]/8,,7,7v5v3[8:4],,,,,1-5[8:2],,2s6[8:3],,2x,,,,8qq8[8:3]/1,,3,4qq4[8:3],,,7,6,5h[8:2],,1pp1[8:3],E6,1/E7,E8,8x-5[8:2],8xh[8:2],,,1-4[8:2],1h[8:2],,,8-5[8:2]*-5[8:2],8h[8:2],,,1-4[8:2],1h[8:2],,,8s4[8:7],8h[8:2],,,1-5[8:3]*-5[8:3],1,,,,,,,,,C,,,,
{8}1/8<5[8:2],,5pp1[8:5],,,4,3,2<4[8:5],,,,,4pp6>2[8:5],,,,8v6v4[8:5],,8,,,4-8[8:2],,2-6[8:2]v4[8:2],,,,,8<3[8:4],,E7,,3>7[8:4],,E1,,7<4[8:4],,E6,,4>2[8:3],,B3,,2<1<8[8:2],,8qq4[8:6],,E3/A2/D3,,,,4qq8[8:6]<6[8:2],,,,4h[2:1],,,,,,,,8b<7[8:2]<6[8:4]>5[8:4]>4[8:4]>3[8:4]>2[8:4]<1[8:4]<8[8:4]/4b>3[8:2]>2[8:4]<1[8:4]<8[8:4],,,,
{4}E7,,E6,,E5,,E4,,E3,,E2,,
{8}E1,C,E5,D5,Cf/E8/B7/E7/E3/B2,,,,,,
