&title=夢見るままに恋をして
&artist=橋本みゆき「ましろ色シンフォニー *mutsu-no-hana op」
&first=0.049999997
&des=小野宮結月
&des_5=小野宮結月
&des_4=maistarfans
&lv_4=13
&lv_5=13+
&inote_4=(160)
{1},
{16}1,1,,,3,3,,,5,5,,,7,7,,
,2,2,,,8,8,,,1,1,,2,,,1,,
8,,8,,8,,7,,6,,5,,4,,3,,
,,,,,,,2,3,,4,,3,,4,,
5,,6,,5,,6,,5,,7,,8,,1,,
Ch[16:4],,,,,,,,56,,1,,34,,8,,
56,,1,,34,,8,,12,,78,,18,,45,,
,,,,,,,2,2,3,3,,1,,1,,
7,7,6,6,,8,,8,18,,87,,12,,23,,
Ch[16:4],,,,,,,5h[4:4],,,,,,,,,
,,,,,3,,3-7[8:2],,3,,4-8[8:1],,,,,
,,,,1h[16:12],,B1,,B2,,,,,,,,
,,,,,,67,,67,,56,,56,,78,,
78,,67,,,4h[4:4],,,,,,,,,,8x,
8x,8x,8x,8x,,,,,8,,8,,12,,23,,
34,,45,,6h[8:6],,,,,,,,,,B1,,
B2,,B8,,B7,,C,,,,7xb,,7xb,,7xb,,
7xb,,,,8,,1,,18,,27,,63,,54,,
B1,,C,,B4,,E5,,,,5,,6,,7,,
8,,8,,1,,2,,12,,38,,74,,56,,
E1,,E8,,C,,B5,,,,2b,,2b,,2b,
,2b/3b,,34,,45,,56,,45,,34,,45,,56,,
B6,,C,,B3,,,,,3,3,,3,,2,,
1,,18,,17,,26,,35,,4,,3,,2,,
1h[8:2],,,,,,,,,,8,8,8,,8,,
8,,7,,6h[8:2],,,,,,7,,7,,8,
,8,,1,,1,,2,,2,,3,,3,,4,
,4,,5,,6,,7,,,1,8,1,8,1,2,,
2,2,3,3,4,,5,,56,,67,,78,,1h[8:4]/8h[8:4],,
,,,,,,,,8,,8,,7,,7,,
6,,6,,5,,5,,4,,4,,3,,3,,
2,,2,,1,,1,,,1,8,1,8,1,2,,
8,1,8,1,8,,87,,67,,65,,67,,7/8b,,
,,,,,,,,Cf,,,,,,,,
8h[16:2],,4h[8:1],,6h[8:1],,2h[8:1],,8h[16:2],,4h[8:1],,6h[8:1],,2h[8:1],,
8h[16:2],,4h[8:1],,,,,,5,4,5,4,5,,5,6,5
,6,,6,7,6,7,6,,7-4[8:2],8-3[8:2],,,,,,
,,,,,,2,1,2,1,2,3,4,3,4,3,
4,5,6,5,6,5,4,5,56,,78,,18,,23,,
,,,,,,3,2,1,2,3,2,1,2,3,3,
2,1,2,3,2,1,,,23,,34,,45,,56,,
,,,,,8,,8-5[8:1]/1-4[8:1],,,18,,,,3,,
2,,1,,,18,,87,,76,,54,,56,,67,
,56,,,,,,,8,7,6,6,7,8,8,7,
6,6,7,8,8,7,6,6,56,,45,,56,,45,,
,,,,,,,1,1,2,2,3,3,1,1,2,
2,3,3,2,2,1,1,,23,,23,,34,,45,,
,,,,,,4,5,4,5,4,5,4,5,4,5,
3,4,5,6,4,5,,,18,,27,,36,,45,,
,,,,,,78,,16,,25,,34,,12,,
38,,47,,56,,4,,3,,2,,1,,2,,
3,,2,,1,,,,,1,1,,2,,2,,
,2,2,,3,,3,,3b/4b,,4b/5b,,5b/6b,,7b/8b,,
1b/8b,,,,Cf,,,,,,1>8[4:6],,,,,,
,,,,,,B8,,C,,B6,,B5,,E6,,
B1,,B3,,,,,,8<1[8:11],,,,,,,,
B5,,B6,,B7,,B8,,C,,B1,,B2,,B3,,
B4,,E5f,,,,1h[4:6],,,,,,,,,,
2x,2x,2x,2x,2x,,B3,,B2,,B1,,C,,B7,,
B6,,B5,,,,,,5,,6,,7,,8,,1,,2,,3,,4,,,,,,,,,,
,,,,,,,1,,2,,3,,4,,,
,,3b,,,,1b,,,,,,,,,,
{1},,,,,E
&inote_5=(160.0)
{1},
{1},
{8},,,,3,3,4,4,
5,5,6,6,45,36,27,18,
,,,,1pp5[8:3],,,6,7,
8,8,,8b-6[8:1]-4[8:1],1,2,3,
,,1,,78,,76,,
65,,5qq5[8:2]*pp5[8:2],,5,,,73,
{16},,,,,,,2x,2x,3x,3x,,4x,,4x,,
7x,7x,6x,6x,,5x,,5x,4x/5x,,36,,27,,18,,
{8},,7-1-3-5[8:6],,C,B4,B5,,
,,,8,,8-4[8:1],1-5[8:1],,
,,,6-4-2-8[8:4],,C,B4,B5,
,,,8-4[8:1],,7-3[8:1],6-2[8:1],,
{16},,,,,4h[4:3],,,,,,,,,,8x,
8x,8x,8x,8x,,,,,8,,8,,12,,23,,
34,,45,,6h[8:6],,,,,,,,,,B1,,
B2,,B8,,B7,,C,,7b,,7b,,7b,,7b,,
{8}7xb>2v4[8:6],,,,,,,,
3,2,1,,,8,8,7,
{16}8,,8,,1,,2,,12,,38,,74,,56,,
{8}E1,E8,C,B5,,1b,1b,1b,
1b,1xb-7-2-6-3-5[8:4],,,,,,,
{16}B6,,C,,B3,,,,,3,3,,3,,2,,
1,,18,,17,,26,,35,,4,,3,,2,,
1h[8:2],,,,,,,,,,8,8,8,,8,,
{8}7,8,1,,7^4[8:2],8,1,2^7[8:2],
3,4,5^2[8:2],6,7,8^5[8:2],1,2,
3^8[8:2],4,5,6,{16},1,8,1,8,1,2,,
2,2,3,3,4,,5,,56,,67,,78,,1h[8:4]/8h[8:4],,
{8},,,,,2^5[8:2],1,8,
7^2[8:2],6,5,4^7[8:2],3,2,1^4[8:2],8,
7,6^1[8:2],5,4h[3:4],,,B5,B6,
B7,B8,C,B1,B2,B3,B4,E5,
{16},,,,,,,,Cf,,,,,,,,
8h[16:2],,4h[8:1],,6h[8:1],,2h[8:1],,1h[16:2],,3h[8:1],,5h[8:1],,7h[8:1],,
1h[16:2],,6h[8:1],,,,,,5,4,5,4,5,,5,6,5
,6,,6,7,6,7,6,{8}7-4[8:1],8-3[8:1],B6f,B1f,
{16},,,,,,2,1,2,1,2,3,4,3,4,3,
4,5,6,5,6,5,4,5,56,,78,,18,,23,,
,,,,,,3x,2x,1x,2x,3x,2x,1x,2x,3x,3x,
2x,1x,2x,3x,2x,1x,,,23,,34,,45,,56,,
{8},,,78,81,12,,21,
18,87,,6,7,8,1,2,
3,,{16},,,,8x,7x,6x,6x,7x,8x,8x,7x,
6x,6x,7x,8x,8x,7x,6x,6x,5x/6x,,45,,56,,45,,
,,,,,,,1,1,2,2,3,3,4,4,5,
5,6,6,7,7,8,8,,12,,34,,56,,78,,
,,,,,,4,5,4,5,4,5,4,5,4,5,
3,4,5,6,4,5,,,18,,27,,36,,45,,
,,,,,,78,,16,,25,,34,,12,,
38,,47,,56,,4,,3,,2,,1,,8,,
7,,6,,5,,,,,8,8,,7,,7,,
{8}7,7-3[8:1],,,4-8[8:1],5-1[8:1],6-2[8:1],
7-3[8:1],,,,,1^6[8:1]/2^5[8:1],,E1/E2/E3,
,,,,4,4v7[8:2],4v1[8:2],4-8[8:2],,
,,,,B3,B2,C,B6,
E5f,,,5v8[8:2],5v2[8:2],5-1[8:2],,,
,,,8,7,8,1,,
{16}1bx,1x,1x,1x,{8},1,1v6[8:2],1v4[8:2],1-5[8:2],,
,,8h[8:1],7h[8:1],6h[8:1],3h[8:1],2h[8:1],1h[8:1],
,2,3,4,,5h[8:4]/4h[8:4],,,
,,,,B4,4,B5,5,
B6,6b,B3,3b,,,,,
E
