&title=白線
&artist=初星学園 // 葛城リーリヤ (CV. 花岩香奈)
&first=0
&des=
&des_5=NigelP
&clock_count=4
&lv_5=13+
&inote_5=(181)
{1},,
{8}4hx[4:1]/6hx[4:1],,,3x/5x,,4x/6x,,
5hx[4:1]/3hx[4:1],,,6x/4x,,5x/3x,,,1/8,
3,3,4,4,5,5,6,6,
2x/7x,2x/7x,2bx/7bx,,{16}4,5,4,5,4>5[8:7],5,4,5,
{1}Cf,
{8}2h[4:1]/8h[4:1],,,1/7,,3/6,3/6,,
{4}2b/7b-2[8:1],3-6[8:1],5-8[8:1],1-4[8:1],
6-3[8:1],2-7[8:1],5-8[8:1],4,
{4}2-5[8:1],8-4[8:1],1-5[8:1],7,
{8}2h[4:1]/6h[4:1],,,2/6,,8x,8x,,
{8}1b/5b,,4/7h[2:1],,4,,4,,
4/E6,,4/E7,,4/E8,,4/E1,,
1x/8x,,2h[2:1]/5,,5,,5,,
{8}5/E1,,5/E2,,5/E3,,5/E4,8,
8^5[8:1],,3^8[8:1],,6^3[8:1],,1,,
1h[4:3],,,{16}7,6,5h[4:1],,,,,,2/4,,
{8}5/7-3[8:1],,2,1-5[8:1],,6,,7hx[4:1],,
A4,A3,A2,A1,A8,A7,,
1xq5[2:1]/6b,,7,,7,,8,,
8p4[2:1],,2,,2,,1,,
1s5[2:1],,6,,6,,7,,
7z3[2:1],,1,,1,,2,5,
4^1[8:1],,7^4[8:1],,2^7[8:1],,5,,
5h[4:3],,,{16}3,2,1h[4:1],,,,,,7,,
{8}7h[8:3],,,4-2[8:1]*-6[8:1],,4w8[8:1],,4x,
{8},,1x/7x,,5,6,7,8,1/2-4[8:1],,1/2,,7-5[8:1]/8,,8/7,,
1/2-4[8:1],,1/2,,7-5[8:1]/8,,8/7,,
4^1[4:1],,1^6[4:1],,6^3[4:1],,3^8[4:1],,
8<4[4:1],,4>8[4:1],,8<4[4:1],,4,,
{4}3bx^1v8^6[4:5],6,5,5,5,4,4,3,
A5h[4:7]/A6h[4:7]/E6h[4:7]/B5h[4:7]/B6h[4:7],3,2,2,1,8,8,
{8}7,,{4}7-1v2-4b[4:5],4,5,5,5,6,6,7,
{8}A4h[4:7]/A3h[4:7]/E4h[4:7]/B4h[4:7]/B3h[4:7],,6,,7,,7,,8,,1,,1,,2,,
{16}8hx[16:1]/6hx[16:1],,7h[16:1]/5h[16:1],,,6h[16:1]/4h[16:1],,,2hx[16:1]/1hx[16:1],,
8h[16:1]/3h[16:1],,,7h[16:1]/4h[16:1],,,
6hx[8:1]/5hx[8:1],,,,7/3,,6/2,,5b/1b,,,,,,,,
{4}4xq8[8:1]/5x^7[8:1],4/5,4-7[8:1]/5^7[8:1],4/5,
{4}5p1[8:1]/4^2[8:1],5/4,5-2[8:1]/4^2[8:1],5/4,
{4}1/8,2>6[4:1]/7,6<2[4:1],2,
{16}D3,D4,D5,D6,D7,D8,D1,D2,D3,,,,
{4}5x^8[4:1],8z4[4:1],4^1[4:1],1s5[4:1],
{8}5^8[4:1],,8z4[4:1],2x,,2x,,,5/7,,
{8}3-8[8:1],,5,6-1[8:1],,4>5[8:3],,8b,
,,,,3/6,,4/5,,
{4}5xp1[8:1]/4x^2[8:1],5/4,5-2[8:1]/4^2[8:1],5/4,
{4}4q8[8:1]/5^7[8:1],4/5,4-7[8:1]/5^7[8:1],4/5,
4bx/6bx,2b/8b,3bv1b[8:1]/7bv5b[8:1],3b/7b,
,2/6,{16}7h[16:3],,,6h[16:3],,,5,,1h[16:3],,,2h[16:3],,,3,,
8h[16:3],,,7h[16:3],,,6,,6h[16:3],,,5,,,3/4,,
1/2,,,,3/8,,,,
{8}2b-5[8:1],,2,7b-3[8:1],,7,5bxp4>6[2:1],5,,,,,,,3/7,,
{1}2bhx[4:15]/8bhx[4:15],,,,
{1}6h[1:1],5h[1:1],4h[1:1],
{4}3h[4:3],,,5-1[4:3],
{4}7,7,7,4-8[4:3],
{4}2,2,2,5<1[4:3],
4,4,4,4>8[4:3],
6,6,6,6,
{16}1h[16:3],,,2h[16:3],,,3,,
5h[16:3],,,6h[16:3],,,7,,7h[16:3],,,8,,,1/2,,
3/4,,,,2/5V71[4:1],,,,
{4}1V35[4:1],5V71[4:1],
{4}1V35[4:1],5<5b[8:3],{32}Cf,,,,,,,,,,,,,,,,,5x,6,7,8,1,2,3,4,5,6,7,8,1,2,3,
{4}4xq8[8:1]/5x^7[8:1],4/5,4-7[8:1]/5^7[8:1],4/5,
{4}5p1[8:1]/4^2[8:1],5/4,5-2[8:1]/4^2[8:1],5/4,
7-2[8:1],1-4[8:1]/7,5-8[8:1]/1,5b/2bq5<4[8:5],
Cf,,,{4}5x^8[4:1],8z4[4:1],4^1[4:1],1s5[4:1],
{8}5^8[4:1],,8z4[4:1],2x,,2x,,,5/7,,
{8}3-8b[8:1],,5,6-1b[8:1],,4>5b[8:3],,8b,
,,,,{16}1,8,1,8,2,7,3,6,
{4}5xp1[8:1]/4x^2[8:1],5/4,5-2[8:1]/4^2[8:1],5/4,
{4}4q8[8:1]/5^7[8:1],4/5,4-7[8:1]/5^7[8:1],4/5,
3bx/6bx,1b/8b,2bpp8b[4:1]/7bqq1b[4:1],{384}2b/7b,Cf,,,,,,,,,,,,,,,,,,,,,,,,,,,,,,,,,,,,,,,,,,,,,,,,,,,,,,,,,,,,,,,,,,,,,,,,,,,,,,,,,,,,,,,,,,,,,,,
{8},,7/3,,{16}2h[16:3],,,3h[16:3],,,4,,8h[16:3],,,7h[16:3],,,6,,
1h[16:3],,,2h[16:3],,,3,,3h[16:3],,,4,,,6/5,,
8/7,,,,6/1,,,,
{8}2b-6[8:1],,2,7b-4[8:1],,7,1bxw5[4:1],1,,,,,
{16}2,,,3,,,4,,
{1}5hx[2:1]/B7h[2:1]/B8h[2:1]/E8hf[2:1],
1hx[2:1]/B3h[2:1]/B4h[2:1]/E4hf[2:1],
{8}6b-2[8:1],,6,1b-5[8:1],,4bx-8[8:1],,
4bxpp4[4:1]*qq4[4:1],,,,,
2x/6x,{16}1,7,1,7,1,7,
{8}2/5,3,4,5/7,,4/6,,2-6[8:1]/5,,1-5[8:1]/2,,1/8-4[8:1],,7-3[8:1]/8,,1>8[8:5]/7,
1x,,,,,,,2x/6x,,4/5,4/5,3/6,3/6,2/7,1b/8b,,
4/7,6,5,2/4,,3/5,,6/8,
,7,5,3-8[8:1]/8-4[8:1],,3x/8x,,5/6,
5/6,,4/7,4-1[8:1]/7-4[8:1],,4x/7x,,3/8,
,2,4,7^4[8:1]/1-5[8:1],,7x/1x,,2,
2h[8:3],4,5,6,,3x/5x,,7,
7h[8:3],5,4,3,,4x/6x,,3/7,
{8}2b-6[8:1],1,2x,7b-3[8:1],8,7x,4b-8[8:1],5,
4x,7,,7,1b/5b,2b/6b,3bh[16:4]/7bh[16:5],,
{8},,,2bxv5V71>5[2:5]/6bxv1V35<1b[2:5],,,,,,,,,,,,,,,,,,,,,,,,
3x-7[8:1],,,,,
E
