&title=Raison d'etre
&artist=電気式華憐音楽集団
&first=0.52
&des=Right-Arm Killer
&lv_5=14
&inote_5=(180)
{16}
2,4,3,4,2,4,3,4,2,4,2,4,3,4,3,4,
2,4,3,4,2,4,3,4,1,4,1,4,8,,,,
16,,1h[8:5]/6h[8:5],,,,,,,,,,,,,,
83,,8h[8:5]/3h[8:5],,,,,,,,,,,,,,
16,,1h[8:5]/6h[8:5],,,,,,,,,,,,,,
83,,4,,4,,6,5,6,,7,,7,1,7,,
2b,6,4,6,2,6,4,6,2,6,4,6,2,6,4,6,
1,6,4,6,1,6,4,6,1,6,4,6,1,6,4,6,
8,6,4,6,8,6,4,6,8,6,4,6,8,6,4,6,
1,7,1,7,2,6,2,6,3,5,3,5,4,6,4,6,
5b,6,5,6,4,5,4,5,4,5,4,5,3,4,3,4,
3,4,3,4,2,4,2,4,2,4,2,4,1,5,1,5,
1,5,1,5,8,6,8,6,8,6,8,6,1,7,1,7,
1,7,1,7,2,8,2,8,2,8,2,8,3,7,3,7,
4b,6,4,6,5,6,5,6,5,6,5,6,4,7,4,7,
4,7,4,7,3,8,3,8,3,8,3,8,2,1,2,1,
2,1,2,1,3,1,3,1,3,1,3,1,4,8,4,8,
4,8,4,8,5,7,5,7,4,6,3,5,3,4,3,4,
2b,4,2,4,1,5,1,5,2,4,2,4,1,5,1,5,
3,5,3,5,2,6,2,6,3,5,3,5,2,6,2,6,
4,6,4,6,3,7,3,7,4,6,4,6,3,7,3,7,
5,7,5,7,4,8,4,8,5,7,5,7,4,8,4,8,
1b,6,1,6,2,7,2,7,3,8,3,8,4,1,4,1,
3,1,3,1,2,8,2,8,1,7,1,7,8,6,8,6,
1,5,1,5,3,4,3,4,2,6,2,6,4,5,4,5,
3,7,3,7,5,6,5,6,1,7,2,6,3,5,4,6,
5b,6,5,6,5,,,,3,4,3,4,3,,,,
18,,18,,27,,27,,36,,36,,54,,54,,
3,4,3,4,3,,,,2,1,2,1,2,,,,
78,,78,,78,,6,5,7,,3,4,3,,5,4,
6,5,6,5,6,,,,1,8,1,8,1,,,,
2,4,2,4,3,5,3,5,4,6,4,6,5,7,5,7,
8,7,8,7,8,,,,3,4,3,4,3,,,,
62,,62,,73,,73,,62,,26,,3,7,3,7,
5b,6,2,6,5,6,2,6,5,6,2,6,5,6,2,6,
5,6,1,6,5,6,1,6,5,6,1,6,5,6,1,6,
5,6,8,6,5,6,8,6,5,6,8,6,5,6,8,6,
4,7,4,7,2,5,2,5,4,7,4,7,2,5,3,4,
2,4,3,4,2,,2,,7,5,6,5,7,,7,,
3,4,2,,3,5,1,,4,5,3,,4,6,2,,
3,4,2,4,3,,3,,6,5,7,5,6,,6,,
1,5,3,,2,4,3,,2,6,4,,3,5,4,,
3,1,2,1,3,,3,,6,8,7,8,6,,6,,
2,1,3,,2,8,4,,1,8,2,,1,7,3,,
2,1,3,1,2,,2,,7,8,6,8,7,,7,,
4,8,2,,3,1,2,,3,7,1,,2,8,1,7,
5b^2[8:1],,,,56,,,,8,,8,,71,,2pp1[8:2]/6,,
,,5,,6,,7h[8:2],,,,8,,1,,2,,
3-5[8:1]/5^8[8:1],,,,3/5p1[8:1],,,,6-2[8:1],,,,2,,4>6[8:2],,
,,6,,5,,4h[8:2],,,,8,,6-1[8:1]/2-5[8:1],,,,
2b/6b,,,,3-8[8:1]/7,,,,7,,5V73[8:2],,,,5/3>5[8:2],,
,,4,,4,,3h[8:2],,,,2,,13,,82,,
1-5[8:1]/7-5[8:1],,,,1-3[8:1]/7-3[8:1],,,,1/7,,,,45,,2h[8:4]/7h[8:4],,
,,,,,,,,4,5,4,5,4,5,4,5,
8b,6,4,6,8,6,4,6,8,6,4,6,8,6,4,6,
1,7,5,7,1,7,5,7,1,7,5,7,1,7,5,7,
2,8,6,8,2,8,6,8,2,8,6,8,2,8,6,8,
1,7,5,7,1,7,5,7,1,7,5,7,1,7,5,7,
8b,6,4,6,1,6,5,6,8,6,4,6,1,6,5,6,
7b,5,3,5,8,5,4,5,7,5,3,5,8,5,4,5,
1b,6,5,6,8,6,4,6,1,6,5,6,8,6,4,6,
2b,7,5,7,8,7,3,7,1,7,1,7,2,6,3,5,
4b,5,4,5,3,4,3,4,2,6,2,6,1,8,1,8,
5b,7,5,7,4,5,4,5,2,4,2,4,1,8,1,8,
3b,6,3,6,1,5,1,5,4,7,4,7,8,6,8,6,
2b,4,3,6,5,7,1,8,2b,5,4,7,1,6,3,8,
2b,1,2,1,3,8,3,8,4,7,4,7,5,6,5,6,
8b,7,8,7,1,6,1,6,2,5,2,5,3,4,3,4,
2b,1,2,1,5,6,5,6,1,8,1,8,4,5,4,5,
8b,7,8,7,3,4,3,4,2b,8,4,6,1,7,3,5,
8b-4[8:1],,,,,,,,1b-5[8:1]/2,,,,,,,,
{32}1b/7b,2,3,4,5,6,7,8,1,2,3,4,5,6,7,8,1,2,3,4,5,6,7,8,1,2,3,4,5,6,7,8,
1b,2,3,4,5,6,7,8,1,2,3,4,5,6,7,8,1,2,3,4,5,6,7,8,1qq3[8:3],2,3,4,5,6,7,8,
{16}1b,,,,,,,,7-4[8:1],,7,,1-5[8:1],,1,,
8^5[8:1],,8,,2q6[8:1],,2,,1,,1,,82,,82,,
3b,7,3,7,3,7,3,7,3,7,3,7,3,7,3,7,
2,6,2,6,2,6,2,6,2,6,2,6,2,6,2,6,
1,5,1,5,1,5,1,5,1,5,1,5,1,5,1,5,
8,4,8,4,1,5,1,5,2,6,3,6,4,7,5,7,
8b,7,8,7,1,6,2,5,3,5,3,5,4,6,4,6,
2b,1,2,1,3,5,4,6,1b,8,1,8,3,5,4,6,
8b,7,1,8,2,1,3,8,5b,7,4,6,3,5,2,4,
1b,8,3,6,4,5,3,4,8b,7,2,5,3,4,2,5,
1b,7,1,7,5,6,5,6,1,7,1,7,5,6,5,6,
2b,8,2,8,3,4,3,4,2,8,2,8,3,4,3,4,
1b,6,2,6,3,6,4,6,2b,6,3,6,4,6,5,6,
8b,7,4b,5,2b,1,4b,5,8b,6,5b,7,2b,8,4b,5,
1b^6[8:1]*^4[8:1],,,,,,,,8b-4[8:1]*w4[8:1],,,,,,,,
{48}1b/2b,83,74,6<5[8:11]/5>6[8:11],,,{16},,,,,,,,,,,,
,,,,,,,,,,,,,,,,
{24}6,5,7,1b,,,,,,,,,,,,,
