&title=ストロボライト
&artist=椎名もた
&first=0
&des=Luner
&lv_5=12
&inote_5=(120)
{4},,,,
{32}1h[16:2]/6,5,{16}4,,,
1h[16:2],,,,
{32}2h[16:3]/6,5,{16}4,,3h[16:3],
,,4,,
{32}6,5,{16}4,3h[16:2],,
4h[16:4],,,,
5h[16:3],,,6h[16:3],
,,5,,
{32}6h[16:2]/3,4,{16}5,,,
2h[16:2],,,,
{32}6h[16:2]/3,4,{16}5,,,
2h[16:2],,,,
{32}6h[16:3]/3,4,{16}5,,5h[16:3],
,,6h[16:2],,
5h[16:2],,,,
7h[16:2],,,,
{32}8h[16:2]/3,4,{16}5,,,
8h[16:2],,,,
{32}7h[16:3]/3,4,{16}5,,6h[16:3],
,,5,,
{32}3,4,{16}5,6h[16:2],,
5h[16:4],,,,
4h[16:3],,,3h[16:3],
,,4,,
{32}3h[16:2]/6,5,{16}4,,,
7h[16:2],,,,
{32}3h[16:2]/6,5,{16}4,,,
7h[16:2],,,,
{32}3h[16:3]/6,5,{16}4,,4h[16:3],
,,3h[16:2],,
4h[16:2],,,2b/4b,
1b^4[8:1]/5bp8[8:1],,1b/5b,,
{16},,,,
8^5[8:1]/4q1[8:1],,,,
,,,,
1^4[8:1]/5p8[8:1],,,,
{16},,,,
8^5[8:1]/4q1[8:1],,,,
,,,,
1/5,,,,
{16}73,,6,,
7/3-6[8:1],,6,,
3,,,,
73,,6,,
{16}73,,6,,
7/3-6[8:1],,6,,
3,,7h[16:3],,
,3h[16:3],,,
{16}7,,6,,
7/3-6[8:1],,6,,
3,,,,
73,,6,,
{16}73,,6,,
7/3-6[8:1],,6,,
3,,,,
73,,6,,
{16}4h[4:6]/5h[8:1],,,,
6h[8:1],,,,
5h[8:1],,,,
6h[8:1],,,,
{16}5h[8:1],,,,
6h[8:1],,,,
5,,26,,
4/8-6[8:1],,,,
{16}1b,,,,
2-4[8:1]/5,,,,
6,,,,
5-1[8:1]/7,,6,,
{16}8,,,,
73,,6,4,
5,4,6,,
1-3[8:1]/5,,7,,
{16}8,,,,
7-5[8:1]/4,,,,
3,,,,
4-8[8:1]/2,,3,,
{16}1,,,,
26,,5,3,
4,3,5h[16:2],,
1-3[8:1],4h[16:3],,,
{16},,,,
7-5[8:1]*-3[8:1]/4,,,,
,,,,
4w8[8:1]/2,,3,,
{16},,,,
26,,3,5,
4,6,5,,
8-6[8:1]/4,,2,,
{16}1,,,,
2-4[8:1]*-6[8:1]/5,,,,
,,,,
5w1[8:1]/7,,6,,
{16},,,,
73,,4,6,
3,5,1h[16:1],,
1-3[8:1],,8h[16:1],,
{16}8,,,,
7-5[8:1]/4,,,,
3,,,,
4-8[8:1]/2,,3,,
{16}1,,,,
26,,3,5,
4,5,3,,
8-6[8:1]/4,,2,,
{16}1,,,,
2-4[8:1]/5,,,,
6,,,,
5-1[8:1]/7,,6,,
{16}8,,,,
73,,4,6,
5,6,4h[16:2],,
8-6[8:1],5h[16:3],,,
{16},,,,
2-4[8:1]*-6[8:1]/5,,,,
,,,,
5w1[8:1]/7,,6,,
{16},,,,
73,,6,4,
5,3,4,,
1-3[8:1]/5,,7,,
{16}8,,,,
7-5[8:1]*-3[8:1]/4,,,,
,,,,
4w8[8:1]/2,,3,,
{16},,,,
26,,5,3,
6,4,8h[16:1],,
8h[16:1],,8h[16:1],,
{16}3h[16:2],,,4,
3h[16:2],,2,,
3h[16:2],,,4,
3h[16:2],2,2,,
{16}3h[16:2],,,4,
3h[16:2],2,,,
3h[16:2],,,4,
3,2,3,4,
{16}3h[16:2],,,2,
3h[16:2],,4,,
3h[16:2],,,2,
3h[16:2],4,4,,
{16}3h[16:2],,,2,
3,4,,,63,,,5,
4,3,4,5,
{16}6,,,5,
6h[16:2],,7,,
6h[16:2],,,5,
6h[16:2],7,7,,
{16}6h[16:2],,,5,
6h[16:2],7,,,
6h[16:2],,,5,
6,7,6,5,
{16}6h[16:2],,,7,
6h[16:2],,5,,
6h[16:2],,,7,
6h[16:2],5,5,,
{16}6h[16:2],,{24}3,4,5,
{16}6,,,,
45,,,,
5q7[8:2]/4,,,,
{16}7b/5b,,8,8h[16:3],
,,6,,
7-5[8:1]/5,,8,,
4-7[8:1]/7,,3,,
{16}8-4[8:1]/4,,1,,
3-8[8:1]/8,,2,,
31,,,,
6V42[8:1]/2,,,,
{16}4V28[8:1]/6,,,,
8V64[8:1]/4,,,,
2V86[8:1]/8,,,,
26,,,,
{16}4>5[16:5]/5p4[16:5],,63,,
,,,,
,,,,
4pp2[8:2]/5,,,,
{16}24,,1,1h[16:3],
,,3,,
2-4[8:1]/4,,1,,
7-4[8:1]/2,,1,,
{16}1-5[8:1]/7,,8,,
8-3[8:1]/1,,2,,
28,,,,
1V75[8:1]/5,,,,
{16}7V13[8:1]/1,,,,
7/3V57[8:1],,,,
5V31[8:1]/3,,,,
51,,,,
{16}3pp2[16:5]/7pp6[16:5],,62,,
,,,,
,,,,
4p2[8:2]/5,,,,
{16}24,,1,1h[16:3],
,,3,,
2-4[8:1]/4,,1,,
5-2[8:1]/2,,6,,
{16}1-5[8:1]/5,,8,,
6-1[8:1]/1,,7,,
68,,,,
3V57[8:1]/7,,,,
{16}5V71[8:1]/3,,,,
1V35[8:1]/5,,,,
7V13[8:1]/1,,,,
73,,,,
{16}5<4[16:5]/4q5[16:5],,36,,
,,,,
,,,,
5qq7[8:2]/4,,,,
{16}75,,8,8h[16:3],
,,6,,
7-5[8:1]/5,,8,,
2-5[8:1]/7,,8,,
{16}8-4[8:1]/2,,1,,
1-6[8:1]/8,,7,,
71,,,,
8V24[8:1]/4,,,,
{16}2V86[8:1]/8,,,,
2/6V42[8:1],,,,
4V68[8:1]/6,,,,
48,,,,
{16}6qq7[16:5]/2qq3[16:5],,37,,
,,,,
,,,,
4h[4:1]/5,,,,
{16}3>5[4:3],,,,
4b,,,,
3,,,,
2,,,,
{16}1pp3[4:1],,,,
2,,,,
1qq7[4:1],,,,
8,,,,
{16}1<3[4:3],,,,
2,,,,
1,,,,
8,,,,
{16}7pp1[4:1],,,,
8,,,,
3qq1[4:1],,,,
2,,,,
{16}7<3[4:2],,,,
8,,,,
1,,,,
2,,1,,
{16}1h[8:3],,,,
7,,8h[8:3],,
,,,,
7h[8:2],,,,
{16}6q3[4:2],,,,
3,,,,
4,,,,
5,,,,
{16}6h[4:2],,,,
5,,,,
3h[4:1],,,,
4q7[8:2],,,,
{16}74,,8,8h[16:3],
,,6h[4:1],,
7-5[8:1],,8,,
4v7[8:1]/7,,3,,
{16}8q4[8:1]/4,,1,,
3^8[8:1]/8,,2,,
31,,,,
6V42[8:1]/2,,,,
{16}4V26[8:1]/6,,,,
8V62[8:1]/4,,,,
2V86[8:1]/8,,,,
26,,,,
{16}5<4[16:5]*p4[16:5]/4,,63,36,
,,,,
,,,,
5pp2[8:2]/6,,,,
{16}25,,1,1h[16:3],
,,3h[4:1],,
2-6[8:1],,1,,
8-4[8:1]/2,,1,,
{16}1-5[8:1]/8,,7,,
8-4[8:1]/1,,2,,
18,,,,
1V74[8:1]/5,,,,
{16}7V14[8:1]/1,,,,
7/3V58[8:1],,,,
5V38[8:1]/3,,,,
51,,,,
{16}27,,6h[16:6],3h[16:7],
,,,,
,,,,
5s1[4:1],4z8[16:3],5,4,
{16},,,,
,,,,
,,,,
,,,,
{16},,,,
,,,,
,,,,
,,,,
{16},,,,
,,,,
,,,,
,,,,
{16},,,,
,,,,
,,,,
,,,,
{16},,,,
,,,,
,,,,
,,,,
{16},,,,
,,,,
,,,,
,,,,
{16},,,,
,,,,
,,,,
,,,,
{16},,,,
,,,,
,,,,
,,,,E
