&title=大大大キライ
&artist=でんの子P
&first=0
&des=v
&lv_5=13+
&inote_5=(140)
{8},,,,,,,,,,2bx/6bx,3bx/7bx,2bx/6bx,
{20}4,5b,
{8}
,6/5,1/2,4/3,7/8,8/1,
{16}6,3,5,4,
{8},8/7,3/4,1/2,6/5,5/4,
{16}4,5,3,6,
{8},5/4,6/3,5/4,6/3,7/2,
{16}8,2,2,7/2,,6,6,2/6,,2,3,4/8,,7,6,5/1,,2/4,,3b,
{8},2/6,3/7,3/7,2/6,2/5,
{16}2,1,3,8,
{8},3/2,3/1,3/8,3/7,4/6,
{16}8,7,1,6,
{8},7/3,4/8,1/5,7/3,1/5,
{16}3,2,2,2/5,,7,7,7/4,,B7,B2,E7,E3,B6,B3,B5,,C/B5/B4,,,
{8}4/5,
{24}4,,4,5,
{16},7,,6,,2,,3,,6,,
{8}6/5,
{24}1,,8,1,,
{16},1/2,,1/2,,7/8,,7/8,,8,,8<5[140#.4],,4,,3,,2,,1>4[140#.4],,5,,6,,7,,8<6[140#.4],,4,,4,,2,,4>2[140#.4],,7,,7,,8,,1,,
{24}2,,3,4,,,8,,5,6,,1,8,,3,4,,2,8,,,7/2,,,1,,1,8,,,8,,1,8-6[16:1],,,8-2[16:1],,,8,,,8,
{16},4<2[140#.4],,6,,6,,7,,4>7[140#.4],,3,,3,,2,,2-6[170#.2]/8,,3,,2/8-4[170#.2],,7,,8,,,,
1,,B5,,2,,B6,,3,,B7,,4,,B8,,5,,B1,,6,,B2,,7,,B3,,8,,B4,,1,,B5,,8,,B3/B4/E4,,7,,B2/E2/B1,,6,,B8/E1/B1,,5,,B8/B7/E8,,4,,E7/B6/B7,,3,,B6/B5/E6,,7-1[170#.18],,1-5[170#.18],,,,,
{24},,5/4,,,2,,3,4,,,1,,3,4,,5,4,,3,4,,5,4,,,5/3,,,8,,6,5,,,8,,6,5,,4,5,,6,5,
{16},C,,2-4[190#.1],,C,,8-6[190#.1],,C,,2-4[190#.1],,C,,8-6[190#.1],,C,,2-4[190#.1],,C,,8-6[190#.1],,C,,2-4[190#.1],,C,,8-6[190#.1],,C,,3/4,,
{24}2,,,7,,,3,,3,4,,3,5,,3,4,,3,5,,2,4,,,5/6,,7,5,,,6,,6,5,,,5/2,,,5/3,,,5/4,,,
{16}C,,2-4[190#.1],,C,,8-6[190#.1],,C,,2-4[190#.1],,C,,8-6[190#.1],,C,,2-4[190#.1],,C,,8/4,,8/4,4/5,,4/5,,4/5,,
{16},2,1,2,1,3,8,3,4/8,,1/5,,1,8,2,7,3,6,4,5,4,5,4,E6,E4,E7,E3,B8,B1,B7/E7,B2/E3,B6/E6,B3/E4,
4h[170#.2]/5h[170#.2],,,,6h[170#.2]/5h[170#.2],,,,3
,4,3,4,,2,1,,B1/B2,4,5,4,B7/B8,4,5,4,
{28}B1,B2,B3,B4,B5,B6,B7,B8f,,,,,4/5,,
{8},1/2,3/4,8/7,6x/5x,1x/2x,3x/4x,
{16}5,2,,,
{8}2/5,3/6,4/7,5x/8x,7x/4x,6x/3x,
{16}2,3,,,
{8}3/4,4/5,5/6,6x/7x,6x/5x,5x/4x,
{16}6,6b/1b,,1,2,3b/8b,,8,7,6b/1b,,,2,7,3,8,4,1,,,
{8}1/4,2/3,1/4,2x/3x,1x/4x,2x/3x,
{16}7,6,,,
{8}6/7,8/5,7/6,8x/5x,7x/6x,8x/5x,
{16}5,1,,,
{8}1/5,2/6,3/7,4x/8x,1x/5x,2x/6x,
{16}1,1x/2x,,3,3/4,3x/4x,,4,3,2b/6b,,5,6,7b/3b,,2/6,7/3,8b/4b,
{8},4/3,1/2,4/3,1/3,1/3,
{16}3,4,3,4,
{8},7/8,6/5,7/8,6/5,6/5,
{16}7,8,7,8,
{8},6/2,5/3,3/7,6/4,5,
{16}4,3,4,3x,,2,1,2x,,4,3,4x,,2,1,3b/8b,,7/2,,6b/3b,
{8},3,4,3,5,3/5,
{16}7,8,7,8x,
{8},2/1,2,2/8,2,2/1,
{16}6,5,6,5x,
{8},8/7,6,7/8,1,7/8,
{16}8x,1x,2x,3x/4x,,3,4,2,,3,4,
{12}E4,B4,B3,C/B5/B4,B8,B7,,
{24}6/5,,,1,,3,5,,,8<5[16:4],,,4,,,3,,,2,,,1,,,3/4,,,8,,8,1,,,1>4[16:4],,,5,,,6,,,7,,,
{24}5,,,3>8[190#.4],,,7,,,7,,,6,,,6<1[190#.4],,,2,,,2,,,3,,,3<6[190#.4],,,8,,,8,,,7,,,7>2[190#.4],,,3,,,4,,,5,,,6,,,
{24}1,,2,1,,,1,,1,8,,2,7,,1,8,,2,7,,1,8,,,3,,4,3,,,4,,4,5,,3,6,,4,5,,3,6,,,
{24}5,,,3>8[190#.4],,,7,,,7,,,6,,,6<1[190#.4],,,2,,,2,,,3,,,3<6[190#.4],,,8,,,7,,,1,,,
{16},,1/8,,,,1>5[185#.5],,,7,,,6,,5<8[185#.6],,,,,,,,8>4[185#.5],,,6,,,5,,4<8[185#.5],,,,3,,,,8>3[185#.5],,,5,,,4,,3<6[185#.5],,,,,,,,6-3[185#.3],,,7,,,5,,
{16}1/8,,1/8,,1/8,,1/8,,
{8}2,1/8-4[16:2],7,8/1-5[16:2],2,1/8-4[16:2],7,8/1-5[16:2],2,1/8-4[16:2],7,8/1,2,1/8
{8}8/3,7/2,1/6,
{8}3,4/5-1[16:2],6,5/4-8[16:2],3,4/5-1[16:2],6,5/4,
{16}B4/E4,B6/E6,B2/E3,B7/E7,E8/B8/E1/B1/E2,,
{16}8/2,7b/2b,,7b/2b,,7b/2b,,,,
{16},7,8,7,8,6,5,6,5/2,,8/7,,8,1,7,2,6,3,5,4,5,4,5,B4,B5,B6,B3,B7,B2,B8,B1,
{16}3,7,4,6,B1/B2,5,B7/B8,B4/B3,2,1,3,7,B4/B3,8,B6/B5,B1/B2,7,1,
{128}E1,B8,B1,B7,C,B2,B6,B3,B5,B4,E5,,,,
{16},,2,2,4,4,6,6,8,8,1,7,8,2,
{16}5/4>1[16:1],,6,,4/5<8[140#16:1],,3,,4,,
{16}1,2,,2,1,,
{32}1x,8x,7x,6x,4x,3x,2x,1x,5x,6x,7x,8x,2x,3x,4x,5x,1x,8x,7x,6x,5x,4x,3x,2x,1x/Cf/E6/B6/B3/B4/E5/B5/E4,,,,,,,4/3,
{8},8/7,6/5,1/2,3x/4x,8x/7x,6x/5x,
{16}4,7,,,
{8}7/4,6/3,5/2,4x/1x,2x/5x,3x/6x,
{16}3,5,,,
{8}2/1,1/8,8/7,7x/6x,7x/8x,8x/1x,
{16}2,2b/5b,,5,6,7b/4b,,3,4,2b/5b,,,8,7,1,6,2,5,,,
{8}8/5,7/6,8/5,7x/6x,8x/5x,7x/6x,
{16}3,8,,,
{8}3/2,1/4,2/3,1x/4x,2x/3x,1x/4x,
{16}6,1,,,
{8}1/6,7/2,8/2,8x/3x,2x/7x,1x/7x,
{16}1,1x/2x,,3,3/4,3x/4x,,6,2x/6x,2b/6b,,5,7x/3x,7b/3b,,,,1/8,
{8},2/7,2/8,2/7,2/8bx,2/7bx,2/8bx
,
{16}2,8,,,
{8}6/2,6/1,6/2,6/1bx,6/2bx,6/1bx,
{16}6,1,,,
{8}7/8,7/1,7/2,7/3bx,7/2bx,7/1bx,
{16}1,8bx,,3,4,3bx,,6,5,6bx,,2,1,3,8,4,7,5,,,
{8}4/3,6/1,8/2,5/6bx,3bx/8,1bx/7,
{16}1,7,,,
{8}1/2,1/3,8/7,8bx/6,1/2bx,1/3bx,
{16}3,1,,,
{8}8/1,5/4,1/2,6/5bx,1/2bx,7/8bx,
{16}2/8,2bx/8bx,,2,3,1/4bx,,7,6,5bx/8,,2,1,8bx/3,,,,3/6,
{8},2/3,7/6,2/3,7/6bx,2/3bx,7/6bx,
{16}3,8,,,
{8}1/5,7/1,3/6,8/2bx,8/4,6/4,7/2,1/2bx,1/2,7/8,7/8,3/4bx,7/8,1/2,6/5,4/2bx,3/5,5/7,6/4,1/4bx,2/5,3/6,4/7,8/3bx,2/6,6/4,4/5,7/1bx,3/6,6/1,8/3,8/4bx,7/2,7/4,4/5,1/5bx,2/6,7/3,8/4,1<8-3>2-5>4-7<6-1[4:5]/5bx-2>3-8>1-6<7-4<5[4:5],,,,,,,,,,,,,,,
{16},3h[32:6]/4h[32:6],,,,,6h[32:4]/5h[32:4],,,,4h[32:4]/5h[32:4],,,,2,1,3,8h[32:6],,,,,6h[32:4]/2h[32:4],,,,6h[32:4]/3h[32:4],,,,2,2,6,6h[32:6],,,,,6h[32:4]/7h[32:4],,,,2h[32:4]/3h[32:4],,,,2,6,3,7,,7,3,6,,
{8}8/1,7b,8/1,2b,8/1,7bh[32:6],
{16},,,5h[32:4]/4h[32:4],,,,8h[32:4]/1h[32:4],,,,1,2,1,2h[32:6],,,,,6h[32:4]/5h[32:4],,,,3h[32:4]/4h[32:4],,,,6,5,6,5h[32:6],,,,,1,,8-6[32:2],,1,,8,,1,2,1,2b,
{16},2,7,2xb,,7,2,7xb,,2,7,2bx,,3/6,,5/4,,,
{8}C,5,C,4,C,
{16}2>4[32:2],,1,2,,,
{8}C,4,C,5,C,
{16}7<5[32:2],,8,7,,,
{8}C,5,C,4,C,5,
{16}3,4x,,6,5,6x,,
{8}8/1,7/2bx,6/3,5/4bx,6/3,7/2bx,
{16},,,3h[16:8],,,,6h[16:4],,,,,,3,6,,,,,2h[16:8],,,,7h[16:4],,,,,,2,7,,,,,
{16}2,,E7,,3,,E8,,4,,
{16}2,1x,,6,1,7x,,3,4,2x,,B7,C,B2,
