&title=Travel Begins
&artist=ARForest
&first=0
&des=Hanying
&lv_5=14
&inote_5=(195)
{1},
{8}4,3,6,5,,46,,3/7h[4:1],
{8},1,2,7,6,3,2,1,
{8}5,6,3,4,,3,5,2h[4:1]/6,
{8},8,7,2,3,,7-2[8:3],,
{8}6h[8:3],,,,8,2,1h[8:4],3h[8:3],
{8},,,,3,4,2h[8:4],5h[8:3],
{8},,,,7,5,6h[8:4],4h[8:3],
{8},,,,5,,2-7[8:3],,
{8}3h[8:3],,,,1,7,8h[8:4],6h[8:3],
{8},,,,6,5,7h[8:4],4h[8:3],
{8},,,,2,4,3h[8:4],5h[8:3],
{8},,,,5-8[8:1],,45,,
{8}1b/2b,1-6[8:1]/2,,3-8[8:1],,7-4[8:1],,2,
{8},1pp5[8:3],7,8-6[8:1],,,,,
{8}87,8-3[8:1]/7,,6-1[8:1],,2-5[8:1],,7,
{8},8qq4[8:3],2,1-3[8:1],,,,,
{8}26,2>5[8:1]/6,,8>3[8:1],,6<1[8:1],,4,
{8},5qq1[8:3],7,8-6[8:1],,,,,
{8}18,1-5[8:1]/8,,7-3[8:1]/1,,2-5[8:1]/7,,28,
{8},12,12,38,47,{16}6,5,6,,47,,
{8}56,5/6<1[4:1],,1>4[4:1],,4<7[4:1],,7>2[4:1],
{8},2p5[8:1],3,4-1[8:1],,4,,,
{8}43,4/3>8[4:1],,8<5[4:1],,5>2[4:1],,2<7[4:1],
{8},7q4[8:1],6,5-8[8:1],,5,,,
{8}27,2-5[4:1]/7,,5-8[4:1],,8-3[4:1],,3-6[4:1],
{8},6v3[8:1],7,8q4[8:1],,8,,,
{8}56,4/7-5[8:1],,7-2[8:1],,7v4[8:1],,7,
{16}3,,6,5,7,,48,,45,,3,4,2,,15,,
{1}3h[4:6]/7>7[4:5],
{8},,,,,,,56,,
{8}7h[8:3],,,1h[8:3],,,3h[8:2],
{8},4,,,78,,2,1,
{8}3h[8:3]/8,,,5h[8:3],,,1h[8:3],
{8},,8h[8:3],,,2h[8:3],,,7,
{8},6h[1:1]/8h[8:2],,,1h[8:2],,,2,
{8},2,,,36,,1,8,
{8}2-4[8:1]/7,,,8-6[8:1],,,1-5[8:1],,
{8},8-4[8:1],,,3<6[8:1],,,8,
{8},1/7-5[8:1],,,1-3[8:1],,,8,
{8},1,,6,5,3,4,7,
{8}2<7[8:2],,,4>1[8:2],,,6>3[8:2],,
{8},8h[4:1],,2,1,3,8,8h[8:2],
{8},1,,,45,45,,2,3,4,7,6,5,4,5,6,
{8}7b,{16}6,5,7,,{8}4-1[8:1],,2-5[8:1]/4,,2,
{8},8,7>2[8:3],6q3[8:2],,,,,
{8}4,{16}3,4,2,,{8}1-6[8:1],,7-2[8:1]/1,,7,
{8},4,3<6[8:3],2q7[8:2],,,,,
{8}8,{16}1,8,2,,{8}7-3[8:1],,2-6[8:1]/7,,2,
{8},8-6[8:1],8-2[8:1],8-4[8:1],,,,,
{8}5,{16}4,5,3,,{8}6-2[8:1],,3-7[8:1]/6,,3,
{16}8,,3,4,3,,25,,47,,6,5,6,,47,,
{8}8b/5b,,,7/8,{16}7/8h[8:2],6,5<8[8:2],4,3,,,,
{16},,,,,,21,,2/1h[8:2],3,4>1[8:2],5,6,,,,
{16},,,,,,35,,3/5h[8:2],2,1>4[8:2],8,7,,,,
{16},,,,,,68,,7,,13,,2,,63,,
{8}4b/5b,,,6/5h[8:1],{16}3,2,1>4[8:2],8,7,,,,
{16},,,,,,2/1h[8:1],,7,6,5<8[8:2],4,3,,,,
{16},,,,,,48,,4-7[8:1]/8-3[8:1],37,26,15,48,,,,
{16}1b/2b,,6,4,5,,78,,2,1,3,,7w3[8:1],8,6,,
{1}7,,,,
{8}2h[8:3],,,3h[8:3],,,4,,
{8}5,4/5h[8:2],,6h[8:3],,,7,,
{8}3h[8:3],,,4h[8:3],,,5,,
{8}6,5,7,7,2,4,3,3,
{8}71,7,7,61,6,6,51,5,
{8}5,61,6,6,17,7,27,7,
{8}28,2,2,38,3,3,48,4,
{8}4,38,3,3,82,2,72,2,
{8}26,5,4,13,2,3,48,7,
{8}6,53,2,1,86,7,42,3,
{8}13,2,2,53,4,4,75,6,
{8}6,17,8,8,1b/3b,1b/3b,1b/3b,1b/3bv5[1:1]*V15[1:1],
{4},,,,,,8z4[8:1]*-5[8:1]/1,8,
{16}2b-5[8:1]/6,,,,2,,7>2[8:1],,,,7,,3,,,,
{16}3,4,3,5,3,,6>3[8:1],5,7,5,6,,1,,,,
{16}7-4[8:1]/3,,,,7,,2<7[8:1],,,,2,,6,,,,
{16}7,8,7,1,7,,4<7[8:1],5,3,5,4,,1,,,,
{16}3-8[8:1]/7,,,,3,,6>3[8:1],,,,6,,2,,,,
{16}3,4,2,4,1,,7,8,6,8,5,,1,2,3,4,
{16}5-2[8:1]/1,,,,5,,8<5[8:1],,,,8,,1,,2,,
{16}37,,6,5,4,,37,,26,,3,4,5,,26,,
{16}7b,3,7,3,7,,2,1,2,3,2,,8,7,6,5,
{16}2,3,2,3,2,,7,8,7,8,7,,1,2,3,4,
{16}6,5,7,5,8,,3,4,2,4,1,,5,6,7,8,
{16}12,3,4,5,8,7,6,5,4-8[8:1]/3-7[8:1],2,1,,34,,,,
{16}5-2[8:1]/6,,7,,8,,1-6[8:1],,5,,4,,3-8[8:1],,3,,
{16}6<1[8:1],,5,,4,,3<6[8:1],,2,,1,,8,,8,,
{16}7b,8,6,1,5,2,4b,3,6,5,7,4,8b,3,1,2,
{16}8b,3,7,2,6b,1,5,8,7/4b,85,16,27,3/8b,1,2,3-7[2:7],
{1}84,,,,
{8}6-2[2:7],6,,8,,1,1,,
{8},8,,1,1,,5,4,
{8}5,5,,4,,3,3,,
{8},8,,7,6,,5-1[8:1],6,
