&title=Approval desire
&artist=Aiobahn
&first=0
&des=超天酱
&lv_5=13
&inote_5=(165){1},
{1}1h[1:2],,6h[1:2],,5h[1:1],2h[1:1],1h[8:15],8h[1:1],
{1}2-5[1:2],
{8},,,,,,7,6,
{8}7,8>3[1:2],,8h[8:11],,,,,
{8},,,,,,,6,
{8}7,6,,5-8[4:7],,,,,
{8},,,,,2,4,3h[8:7],
{8},,,,,,7,6,
{16}4,5,4,5,4,5,4,5,4,5,4,5,4,3,2,1,
{8}8hx[1:1]/7,,7,6,6h[16:3],,7,6,
{8}6h[16:3],,7,6,6h[16:3],,7/1pp1[4:3],6,
{8}6h[16:3],,7,6,6h[16:3],,7,6,
{8}6h[16:3],,7,6,6h[16:3],,7,6,
{8}6/4,5,6/4,5,4/2,3,4/2,3,
{8}2/8,1,2/8,1,8/6,7,8/6,7,
{16}4,6,4,6,3,5,3,5,4,7,4,7,2,5,2,5,
{32}1x,2,3,,,,,,8x,7,6,,,,,,2x,3,4,,,,,,7x,6,5,,,,,,
{16}1pp5[2:1]/5,,,5,,,6,,,6,,,7,,7,,
{16}8qq4[2:1]/4,,,4,,,3,,,3,,,2,,2,,
{16}2pp5[2:1]/5,,,5,,,6,,,6,,,7,,7,,
{16}7qq4[2:1]/4,,,4,,,3,,,3,,,2,,2,,
{16}3q5[2:1]/5,,,5,,,6,,,6,,,7,,7,,
{16}6p4[2:1]/4,,,4,,,3,,,3,,,2,,2,,
{16}4q5[2:1]/5,,,5,,,6,,,6,,,7,,7,,
{16}5v4[4:1]/4,,,4,,,3,,,3,,,2x,3x,2x,3x,
{16}1,,,1,8,,2,,7,2,,,3/6,,3,,
{16}8/1,,,8,1,,7,,2,7,,,6/3,,6,,
{16}1/8,,,1,8,,2,,7,2,,,3/6,,3,,
{16}8/1,,,8,1,,7,,2,7,,,6/3,,6,,
{16}1/8-6[8:1],,,1,8x,,2,,7-5[8:1],2,,,3/7x,,3,,
{16}8/1-3[8:1],,,8,1x,,7,,2-4[8:1],7,,,6/2x,,6,,
{16}1/8-5[8:1],,,1,8x,,2,,7-4[8:1],2,,,3/7x,,3,,
{16}8/1-4[8:1],,,8,1x,,7,,2-5[8:1],7,,,6/2x,,6,,
{4}1/8-5[8:1],2/8b-4[8:1],2/8b-3[8:1],6/8b,
{4}8/1-4[8:1],7/1b-5[8:1],7/1b-6[8:1],3/1b,
{4}4/5-8[8:1],3/5b-1[8:1],3/5b-2[8:1],7/5b,
{4}5/4-1[8:1],6/4b-8[8:1],6/4b-7[8:1],2/4b,
{4}8/7-4[8:1],1/7b-3[8:1],1-4[8:1]/7b,6/1b,
{4}1/2-5[8:1],8/2b-6[8:1],8-5[8:1]/2b,3/8b,
{4}5/6-1[8:1],4/6b-2[8:1],4-1[8:1]/6b,7/4b,
{4}4/3-8[8:1],5/3b-7[8:1],5-8[8:1]/3b,2/5b,
{4}3>4[4:7],3,4,4,
{4}3,3,2,2,
{4}2>1[4:7],2,1,1,
{4}2,2,3,3,
{4}3q2[2:1],4,5,6,
{4}7q6[2:1],8,1,2,
{4}3p2[2:1],4,5,6,
{16}5,4,5,4,5,4,5,4,5,4,5,4,5,6,7,8,
{8}1hx[1:1]/2,,2b,3,3h[16:3],,2b,3,
{8}3h[16:3],,2b,3,3h[16:3],,2b/8qq1[4:3],3,
{8}3h[16:3],,2b,3,3h[16:3],,2b,3,
{8}3h[16:3],,2b,3,3h[16:3],,2b,3,
{8}3/5,6,3/5,6,5/7,8,5/7,8,
{8}7/1,2,7/1,2,1/3,4,1/3,4,
{16}5,3,5,3,6,4,6,4,5,2,5,2,7,4,7,4,
{32}8x,7,6,,,,,,1x,2,3,,,,,,7x,6,5,,,,,,2x,3,4,,,,,,
{16}1/8,,3,5,3h[8:1],,6,4,5,3,7,2,8h[8:1],,3,7,
{16}3b,,6,4,6h[8:1],,3,5,4,6,2,7,1h[8:1],,6,2,
{16}6b,,3,5,3h[8:1],,6,4,5,3,7,2,8h[8:1],,3,7,
{16}3b,,6,4,6h[8:1],,3,5,4,6,2,7,1h[8:1],,6,2,
{16}6b,,3,7,3h[8:1],,6,5,7,2,4,3,8h[8:1],,3,5,
{16}3b,,6,2,6h[8:1],,3,4,2,7,5,6,1h[8:1],,6,4,
{16}6b,,3,7,3h[8:1],,6,5,7,2,4,3,8h[8:1],,3,5,
{16}3b,,6,2,6h[8:1],,3,4,2,7,5,6,1h[8:1],,6,4,
{16}6b,,2,5,3,7,4,6,1,8,2,4,3,,7,5,
{16}7b,,3,7,1,8,2,6,4,5,3,8,2,,6,3,
{16}6b,,2,5,3,7,4,6,1,8,2,4,3,,7,5,
{16}7b,,3,7,1,8,2,6,4,5,3,8,2,,6,3,
{16}6b,,2,1,5,8,4,7,3,6,1,7,2,,8,4,
{16}8b,,1,5,8,6,3,7,2,4,1,7,3,,7,4,
{16}7b,,2,1,5,8,4,7,3,6,1,7,2,,8,4,
{16}8b,,1,5,8,6,3,7,2,4,1,7,3,,7,4,
{16}8bz4[1:1]/Cf,
