&title=Doll's Garden
&artist=Memme
&first=-0.2
&des=7+1b
&lv_4=13+
&inote_4=(160)
{16}
,,,,,,,,,,,,2,3,4,5,
8h[8:2]/6h[8:2],,,,,,7,,7,,,,53,,4,,
2,,8,,3,7,4,6,5h[8:2],,8,,8,,7h[8:2],,
8,,8,,62,,,,2,3,4,5,2,3,4,5,
64,,3,,2,,4,,4,,,,78,,6,,
4,,,,34,5,6,7,8,,2,,34,,6,6,
5,,7,,5,,8,,2,,3,,4/1b,,,,
78,,6,,5,,3,,3,,4,,53,,4,,
2,,8,,3,7,4,6,5h[8:2],,8,,8,,7h[8:2],,
8,,8,,62,,,,2,3,4,5,2,3,4,5,
64,,3,,2,,4,8,5,8,6,8,7,,62,,
4,,83,,2h[8:2],,,,4,3,4,3,7,8,7,8,
6,6,4,4,{24}7,6,5,4,3,2,8,7,6,5,4,3,{16}1b,8,7,6,
54,,,,2h[8:1],,3h[8:1],,4h[8:1],,5,,2,4,3,5,
4,6,5,6,5,,7,,82,,,,2h[8:1],,3h[8:1],,
4h[8:1],,5,,2,6,3,7,4,8,5,,7,,82,,
34,,,,7h[8:1],,6h[8:1],,5h[8:1],,4,,7,5,6,4,
5,3,4,3,4,,2,,7,5,6,4,8,,2,2,
2,,34,,8,2,7,2,6,2,5,2,1b,,83,,
74,,,,7h[8:1],,5h[8:1],,3h[8:1],,5h[8:1],,8,6,7,5,
6,4,5,3,4,,2,,78,,7,,5h[8:1],,3h[8:1],,
5h[8:1],,7h[8:1],,2,6,3,7,2,,34,,45,,65,,
78,,,,2h[8:1],,4h[8:1],,6h[8:1],,4h[8:1],,2,8,3,7,
4,6,5,,34,,2,,7,8,7,8,4,3,4,3,
5,5,8,8,{24}7,6,5,43,,,8,7,6,54,,,{16}1b/2,,,,
56,,,,4h[8:1],,,,3h[8:1],,,,2h[8:2]/5h[8:2],,,,
,,,,6h[8:4],,,,7h[8:2],,,,,,,,
3h[8:4],,,,2h[8:2],,,,,,,,1b,,,,
8h[8:6],,,,6h[8:2],,,,,,,,2h[8:6],,,,
4h[8:2],,,,,,,,8h[8:6],,,,6h[8:2],,,,
,,,,2h[8:2],,,,3,,4,,5/1b,,,,
84,,,,,,,,3,,3h[8:1],,4,,4h[8:1],,
5,,5h[8:1],,6,,6h[8:1],,7h[8:4],,,,5,,5,,
5,,,,4/3h[8:1],,5,,6,,4/7h[8:1],,1b,,,,
3h[32:9],,,,2,4,,,8,,8,,7h[32:9],,,,
8,6,,,2,,2,,3h[32:9],,,,2,4,,,
78,,78,,6,2,4,8,6h[8:1],,4,4,1b,2,7,8,
5,,,3,4,,2,2,4,,3,,45,,6,5,8
,,2,,34,5,6,,4,,3,4,2,,6,6,
5,,4,,3,,82,,64,,5,,78,,2,2,
3,,5,4,5,,8,8,6,,7,,5,,3,4,
2,,35,,83,7,6,,4,,2,8,4,,7,7,
8,,6,,82,,64,,82,,{24}3,4,3,{16}1b,,2,2,
4,,,6,5,,7,7,5,,6,,53,,4,5,2
,,8,,75,4,3,,5,,6,5,7,,3,3,
4,,5,,6,,47,,25,,3,,78,,2,2,
3,,5,4,5,,8,8,7,,2,,4,,6,5,
7,,68,,26,3,4,,7,5,6,5,8,3,4,3,
2,2,4,4,{32}8,7,6,5,8,7,6,5h[32:9],{16},,3,2,1b,8,7,6,
53,,{24}4,3,5,{16}4,,7,7,2,,34,,5,4,7,
6,8,7,6,5,24,3,4,,75,,{24}6,4,5,{16}4,,3,3,
8,,74,,83,7,63,5,42,,3,,85,,7,7,
7,,{24}5,6,4,{16}5,,2,2,8,,73,,5,6,3,4,
2,3,4,5,68,7,6,,2,4,2,4,5,7,5,7,
2,5,4,7,86,,{24}26,3,4,56,,,7,2,8,1b,,,{16}6,6,
57,,{24}3,4,3,4,,,8,5,7,{16}5,,64,,2,3,
48,7,62,3,4,5,68,7,6,,2,,{24}5,3,5,3,,,7,4,7,
{16}5,,64,,8,7,65,4,37,6,5,4,8,8,7,7,
2,,{24}3,4,3,4,,,7,5,6,5,,,82,,,34,,,2,5,3,
4,,,7,5,8,{16}2h[8:2],,,,4,3,8,8,5,6,2,2,
4,3,7,5,{32}8,7,6,5,2,3,4,5,8,7,6,5,2,3,4,5,{16}1b/6,7,8,1,{4}6h[8:2]/2h[8:1],,,3h[8:2]/7h[8:1],,,8h[8:2]/4h[8:1],
