&title=異星にいこうね (feat. 星界)
&artist=いよわ
&first=0
&des_5=外星人
&des=外星人
&lv_5=13+
&inote_5=(192)
{4},,,,
{16}3h[384:1]/5,,,,3h[384:1]/5,,,,3h[384:1]/5,,,,3h[384:1]/5,,,,
{12}5b/3hb[384:1],,3,6,,6,4,,4,5,,5,
{12}2-5[8:1]*v5[8:1],,,,,,6x,,6,4,,4,
{12}5,,5,3,,3,4,,4,2,,2,
{12}5>3[8:1]*v6[8:1],,,
,,,
7x,,7,
4,,4,
{12}5v6[8:1]*v3[8:1],,,
,,,
7,,7,
2,,2,
{12}8v5[8:1],,8,
,,3,
6,,6,
4,,4,
{12}8v2[8:1]*-6[8:1],,,
,,,
3,,3,
5,,5,
{16}1bv6[8:1]*-5>4[8:1],,,,
,,,,
{32}E8h[32:5]/B7h[32:5]/B8h[32:5],,,,
,,,,
,,,,
,,,,
{12}2,,2,
5,,5,
3,,3,
6,,6,
{12}4<6[8:1]*>2[8:1],,,
,,,
{12}7x,1,7,
2,,2,
{12}6,,6,
4,,4,
5,,5,
3,,3,
{12}4-7[8:1]*v2[8:1],,,
,,,
{16}8h[16:3],,,7h[16:3],
,,6h[16:2],,
{12}5-7[8:1]*v4-2[8:1],,,
,,,
8,,8,
2,,2,
{12}6,,6h[12:3],
,,3,
7,,7,
2,,2,
{12}8-2[8:1]*v5<6[8:1],,,
,,,
3,,3,
7,,7,
{12}1p5<6[8:1]*p4>3[8:1],,,
,,,
2h[12:2],,,
,,,
{12}1-3[8:1]/7h[8:6],,,
,,,1>4[8:1]
,,,
,,,
{12}6,5,6,
5,6,7h[12:3],
,,8,
,,,
{12}8-5[8:1]/2h[8:6],,,
,,,8-5[8:1]
,,,
,,,
{12}3,4,3,
4,3,4,
5h[12:2],,4,
,,,
{12}1v6[8:1]/7h[8:6],,,
,,,1v3[8:1]
,,,
,,,
{12}6,5,6,
5,6,5,
4h[12:2],,5,
,,,
{12}3,4,3,
4,2,2,
4,3,4,
3,5,5,
{12}3,4,2,
7,5,6,
2h[8:2],,,
,,,
{12}2>5[8:1]/1q5[8:1],,,
,,,
7<4[8:1]/8p4[8:1],,,
,,,
{12}2q6[8:1]/1>5[8:1],,,
,,,
7p3[8:1]/8<4[8:1],,,
,,,
{12}2-5[8:1]/1,,,
8-4[8:1],,,
3<6[8:1],,,
7p4[8:4]*pp3[8:4],,,
{12},,,
,,,
,,,
2>5[8:1],,,
{12}2/8-4[8:1],,,
3-6[8:1]/8,,,
3/7-4[8:1],,,
7/1>5[8:2],,,
{12}5<1[8:2],,,
1>5[8:2],,,
5<1[8:2],,,
1,,,
{12}6h[8:8],,,
B4/E4,,,
B6/E7,,,
B2/E3,,,
{12}1-4[8:1],,,
1-6[8:1],,,
1-4[8:1],,,
1,,,
{12}7<4[8:1]/8p3[8:1],,,
,,,
2>5[8:1]/1q6[8:1],,,
,,,
{12}7<3[8:1]/8p4[8:1],,,
,,,
2>6[8:1]/1q5[8:1],,,
,,,
{12}7<4[8:1],,,
1-5[8:1],,,
6-3[8:1],,,
2>8[8:4]*p1[8:4],,,
{12},,,
,,,
,,,
7p3[8:1],,,
{12}7/1q5[8:1],,,
8p4[8:1]/1,,,
8/2q6[8:1],,,
2/1<5[8:2],,,
{12}5>1[8:2],,,
1<5[8:2],,,
5>1[8:2],,,
1,,,
{12}4h[8:6],,,
B6/E7,,,
B3/E3,,,
B8/E8,,,
{12}1<7p6>3[8:4],,,
,,,
,,,
,,,
{12}4xv1[8:1]/6x-8[8:1],,,
,,,
3,4,5,
6h[12:3],,,
{12}5>2[8:1]*v7[8:1],,,
,,,
6,5,4,
3h[12:3],,,
{12}4<5-7[8:1]*v2[8:1],,,
,,,
3,4,5,
6h[12:3],,,
{12}5v8[8:1]*>4-2[8:1],,,
,,,
7,6,5,
4h[12:3],,,
{12}5q1[8:1]*<7[8:1],,,
,,,
2,3,4,
5h[12:3],,,
{12}4-8[8:1]*-2[8:1],,,
,,,
7,6,5,
4h[12:3],,,
{12}5-8<7[8:1]*-1[8:1],,,
,,,
2,3,4,5h[12:3]
,,,
{12}1bq5<6[8:1]*v4>3[8:1],,,
,,,
(256)
{4}B7h[4:1]/E8h[4:1]/A7h[4:1],B4h[4:1]/E5h[4:1]/A4h[4:1],A6h[4:1]/E7h[4:1]/B6h[4:1],B1h[4:1]/E2h[4:1]/A1h[4:1],
(192){12}C,,,
2x/7x,,7,
2,3,4,
5-8[8:1]*v2[8:1],,,
{12},,,
37,,3,
7,6,5,
4v2[8:1]*v6[8:1],,,
{12},,,
17,,7,
2,3,4,
5v8[8:1]*q1[8:1],,,
{12},,,
27,,2,
6,5,4,
3v1[8:1]*-6[8:1],,,
{12},,,
27,,7,
3,4,5,
6v5[8:1]*-1[8:1],,,
{12},,,
27,,2,
6,5,4,
3v8[8:1]*-5[8:1],,,
{12},,,
27,,7,
3,4,5,
6v4[8:1]*-1<8[8:1],,,
{12},,,2hx[12:5]
,,,
B7,,8,
,,,
{12}4-1[12:42]/E6,,,
B6,,,
B7h[12:2],,,
8x,,,
{12}E6,,,
B6,,,
B7h[12:2],,,
8x,,,
{12}E6,,,
B6,,,
B7h[12:2],,,
8x,,,
{12}E6,,,
B6,,,
B7h[12:2],,,
8x,,,
{12}5-8[12:30]/E4,,,
B3,,,
B2h[12:2],,,
1x,,,
{12}E4,,,
B3,,,
B2h[12:2],,,
1x,,,
{12}E4,,,
B3,,,
B2h[12:2],,,
1x,,,
{12}7h[12:3]/3,,,5,,,
6/2h[12:3],,,4,,,
{12}8-5[8:1]*v6[8:1],,,
8b-3[8:1],,,
8b,,,
6,,6,
{12}4,,4,
5,,5,
3,,3,
8-6[8:1]*-5[8:1],,,
{12}8v3[8:1],,,
8-6[8:1]*-5[8:1],,,
8v3[8:1],,,
8,,7,
{12}2h[8:2],,,
6,,3,
5,4,6,
5>2[8:1],,,
{12}5/7-4[8:1],,,
1-5[8:1]/7,,,
6-3[8:1]/1,,,
6/1-3<5[8:1],,,
{12}6p2[8:1],,,
1-3<5[8:1],,,
6p2[8:1],,,
1,,,
{12}6<3[8:2],,,
4,,,
E5,E6,E7,
E8,E1,E2,
{12}3x>6[8:2]/6x,,,
5,,,
E5,E4,E3,
E2,E1,E8,
{12}6xh[8:2]/4x,,,
3,,3,
5,,5,
4,,4,
{12}6h[8:2],,,
2,,2,
4,,4,
1-3[8:1]*-4[8:1],,,
{12}1v6[8:1],,,
1-3[8:1]*-4[8:1],,,
1v6[8:1],,,
1,,2,
{12}7h[8:2],,,
3,,6,
4,5,3,
4-7[8:1],,,
{12}4/2-5[8:1],,,
8-4[8:1]/2,,,
8/3<6[8:1],,3,
7-4[8:1],,7,
{12}2-5[8:1],,2,
8-5[8:1],,8,
2q6[8:1],,2,
8p6>4[8:6],,,
{12}4/8,,,
3x,,,
2x,,,
1-4b[8:1],,,
{12}1<7v6>4[8:12],,,
,,,
,,,
,,,
{12},,,
,,,
,,,
,,,
{12}6,5,6,
3,4,3,
7,5,7,
2,4,2,
{12}8,6,8,
1,3,1,
8-5[8:1]*v6[8:1],,,
8,,,
{12}1,3,1,
8,6,8,
2,4,2,
7,5,7,
{12}3,4,3,
6,5,6,
3h[384:1],5h[384:1],1h[384:1],
7h[384:1],5h[384:1],1h[384:1],
{12}3,5,1h[12:3],
{12}B7,,,
{12}6,4,8h[12:3],
{12}B2,,,
{12}3,4,2,
7,5,6,
{12}1-5[8:1]*v6[8:1],,,
{12}1,,,
{12}3,4,1h[12:3],
{12}B8,,,
{12}6,5,8h[12:3],
{12}B1,,,
{12}2,4,2,
7,5,7,
{12}3h[384:1],5h[384:1],1h[384:1],
7h[384:1],5h[384:1],1h[384:1],
{12}3hb[24:4],,,
2h[24:4]/B7`B6,,,
1>3[8:1]/E8`B7,,,
,,,
{12}6h[24:4]/B3`B4,,,
7h[24:4]/B2`B3,,,
8-6[8:1]/E2`B2,,,
,,,
{12}3h[24:4]/B6`B5,,,
6h[24:4]/B3`B4,,,
2h[24:4]/E6`B5,,,
7h[24:4]/E4`B4,,,
{12}1h[24:4]/E6`B5,,,
8h[24:4]/E4`B4,,,
2h[24:4]/E6`B5,,,
7h[24:4]/E4`B4,,,
{12}3,4,3,
{12}E6`B5,,2,
4,,4,
{12}3,,3,
{12}3x/B6`E6,,2,
2x/B5`A5,,7,
7x/B4`A4,,6,
6x/B3`E4,,,
{12}6,5,6,
{12}E4`B4,,7,
5,,5,
6,,6,
{48}2x,,3,,4,,{24}5h[48:7],,,
{48}7x,6,,,5,,{24}4h[48:7],,,
{48}2x,,,3,4,,{24}5h[48:7],,,
{48}7x,,6,,5,,{24}4h[48:7],,,
{12}2-8[8:1],,,
,,,
6-8[8:1],,,
,,,
{12}3pp2[8:3],,,,,,,,,,,,
{12}7>1[8:1],,,
,,,
3<5[8:1],,,
,,,
{12}6pp5[8:3],,,,,,,,,,,,
{12}2v7[8:1],,,
,,,
6v4[8:1],,,
,,,
{12}3>1-4<5[8:3],,,,,,,,,,,,
{12}6hx[12:2],,,
4hx[12:2],,,
5hx[12:2],,,
3xh[12:2],,,
{12}5-8[8:12],,,
,,,
,,,
,,,
{12},,,
,,,
,,,
,,,
{12}2b>5[8:1]/1bq6[8:1],,,
,,,
7<4[8:1]/8p3[8:1],,,
,,,
{12}2q6[8:1]/1V35[8:1],,,
,,,
7p3[8:1]/8V64[8:1],,,
,,,
{12}1-4[8:1]*-3[8:1]/2,,,
1v6[8:1],,,
1,,,
2,,2,
{12}E6,E5,E4,
E3,E2,E1,
E8/4x,E7/3x,E6/2x,
1xq5[8:1],,,
{12}7p3[8:1]/1,,,
2q6[8:1]/7,,,
2/8p4[8:1],,,
8/1>3-5[8:1],,,
{12}6p2[8:1],,,
1>3-5[8:1],,,
6p2[8:1],,,
1,,,
{12}6<3[8:2],,,
4,,,
E5,E6,E7,
E8,E1,E2,
{12}3x>6[8:2]/6x,,,
5,,,
E5,E4,E3,
E2,E1,E8,
{12}6hx[12:3]/4hx[12:5],,,
,,,
3h[12:3]`4h[12:5],,,
,,,
{12}6h[12:3]/4h[12:5],,,
,,,
3h[12:3]`5h[12:5],,,
,,,
{12}7h[12:3]/5h[12:5],,,
,,,
4h[12:3]`3h[12:5],,,
,,,
{12}5h[12:3]/2h[12:5],,,
,,,
4h[12:3]`6h[12:5],,,
,,,
{12}2-6[8:1],,,
2/7-4[8:1],,,
7/1-5[8:1],,,
1/6,,6,
{12}2,,2,
5-8[8:1],,,
5/1>4[8:1],,1,
7,,,
{12}7p3[8:1]/5v3[8:1],,,
,,,
27,,,
6/1v4>3[8:1],,,
{12}1b-6>5[8:1]/A7h[12:2]/E8h[12:2]/D8h[12:2],,,
1qq2>3[8:2]/B3h[12:2]/E3h[12:2]/D3h[12:2],,,
1b/B5h[12:2]/E5h[12:2]/D5h[12:2],,,
,,,
{12}B4h[12:9]`A4h[12:9],,,
,,E2,
E1,E8,E7,
E6,,,
{12}B5h[12:9]`A5h[12:9],,,
,,E8,
E1,E2,E3,
E4,,,
{12}B4h[12:9]`A4h[12:9],,,
,,E2,
E1,E8,E7,
E6,,,
{12}B5h[12:9]`A5h[12:9],,,
,,E8,
E1,E2,E3,
E4,,,
{12}4xh[12:9],,,
,,E2,
E1,E8,E7,
E6,,,
{12}5xh[12:9],,,
,,E8,
E1,E2,E3,
E4,,,
{12}4>4[12:6],,,
,,E2,
E1,E8,E7,
E6,,,
{12}5<5[12:6],,,
,,E8,
E1,E2,E3,
E4,,,
{4}E3h[24:2]/2xh[24:3],,,,
{4},,,,
{4},,,,
{4},,,,
E
