&title=Technicolour
&artist=Maozon
&first=0.01
&des=LemonCat
&lv_5=13+
&inote_5=(175){4},,,,2h[2:1],
6p4>6[8:9],{2}6,
{4},B5,{8},B1,,,{4}7h[2:1],
3q5<3[8:9],{2}3,
{4},B4,{8},B1,B8,E8,
{4}3h[2:1],7pp2>7[8:9],{2}7,
{4},E1,{8},E5,,,{4}7h[2:1],
2qq6[2:1],2,6qq2[2:1],
,,{2}Ch[2:1],
{4}1-3-8-4[4:3],5,7,5,
7-5-8-4[4:3],3,1,3,
1-3-8-4[4:3],5,7,5,
7-1-6-2[4:3],3,5,3,
4h[4:1],{8}8,8,2h[4:1],{16}E8,B7,B6,E6,{8}4h[4:1],
{16}E7,B7,B8,E1,{8}2h[4:1],{16}A7,E7,E6,A5,{8}4h[4:1],{16}A7,E8,E1,A1,
{8}3,3,7,7,6h[4:1],{16}E4,B3,B2,E2,{8}8h[4:1],
{16}E3,B3,B4,E5,{8}6h[4:1],{16}A3,E3,E2,A1,{8}8h[4:1],{16}A3,E4,E5,A5,
7bx,,,6bx/8bx,,,{8}5bx/1bx,{16},,5/1,2/6,{4}3h[4:3]/7h[4:3],
{8},,,,,B7/B3/E4/E3/E8/E7/Cf,{16},,,,2bx,
,,1bx/3bx,,,{8}4bx/8bx,{16},,8/4,3/7,{4}6/2h[4:1],
{8}4,4,6,6,8,8,{4}2h[4:1],
7-3[8:1],7x,{8}1>3[8:1],1<7[8:1],{4}1x,
{8},5,5x-7[8:1],5-3[8:1],{2}5-1[8:1],
{8}4,4,3/7,3,2/6,6,1/5,5,
{16}8,6,8,6,1,5,1,5,2,4,2,4,{8}3bx,7bx,
{4}1-5b[8:1],1b/Cf,{8}7-4[8:1],7-2[8:1],{4}7,
{8},5,5/1,1,4/1,4,4/2,2,
{4}2/3-7b[8:1],3,{8}1-4[8:1],1-6[8:1],{4}1,
{8},3,3/5,5,5/1,1,1/7,7,
8-4b[8:1],6,8,7<5[8:1],2,7,3>1b[8:1],6,
3,4-8[8:1],2,4,3-6b[8:1],7-2[8:1],3,7,
4,4,5/3,3,6,6/2,7/1,1,
8bh[8:1],3,3,8bh[8:1],5,5,8bh[8:1],4,
8-4b[8:1],8,{4}8b/Cf,{8}3-8[8:1],3-6[8:1],{4}3,
{8},1,1/5,5,8/5,8,8/6,6,
{4}6/7-3[8:1],7,{8}5-8[8:1],5-2[8:1],{4}5,
{8},6h[8:1],8h[8:1],1h[8:1],{16}3x,,,8x/2x,,,{8}7x/1x,
{4}1h[4:1],{8}5,5,3h[4:1],{16}E6,B6,B7,E8,{8}1h[4:1],
{16}E7,B6,B5,E5,{8}3h[4:1],{16}A6,E7,E8,A8,{8}1h[4:1],{16}A6,E6,E5,A4,
{8}2,2,6,6,7h[4:1],{16}E2,B2,B3,E4,{8}5h[4:1],
{16}E3,B2,B1,E1,{8}7h[4:1],{16}A2,E3,E4,A4,{8}5h[4:1],{16}A2,E2,E1,A8,
{8}6h[8:11],,,1pp5-3[2:1],,,,,,,,2h[8:5],
7,7,{4}8h[8:1],
{8}7h[1:2],,,2q5-8[2:1],,,,,,,,3,
2,2,{4}1h[8:1],
{8}3h[8:11],,,8qq4-6[2:1],,,,,,,,7h[2:1],
2,2,{4}1h[4:1],
{8}8-6-4-2[8:3],,,2>3-5-7>8[2:1],,,{4}Ch[2:1],
{8},,,,7,2,{16}8,1,8,1,
{4}7h[8:3],{8}8,8,,8/7,{4}6/1,
{8}7h[8:1],5,4/8,4h[8:1],,6,{4}2,
2h[8:3],{8}1,1,,1/2,{4}3/8,
{8}2h[8:1],4,5/1,5h[8:1],,3,{4}7,
6h[8:3],{8}5,5,,5/6,{4}7/4,
{8}6h[8:1],8,1/5,1h[8:1],,7,{4}3,
3h[8:3],{8}4,4,,5/3,{4}6V82p4[4:3]`2V46p8b[4:3],
,,,,5h[1:2],
{8}B2,B1,,D2/E2,,,,,B6,
B7,,D7/E7,,,{4}4h[1:2],
{8}B7,B8,,D8/E8,,,,,B3,
B2,,D3/E3,,,{4}8h[1:3],
{8}B3,B4,,D4/E4,,,,,B6,
B5,,D6/E6,,,,,B5,
B4,,D5/E5,,,{4}Cfh[1:1],
{8}B8,B1,,D1/E1,,,{4}8-6-1-5[4:3],
4,2,4,
2-4-1-5[4:3],6h[4:1],{8},7h[4:1],,,{4}8-6-1-5[4:3],
4,2,{8}4,4,
2-8-3-7[4:3],2,6,6,5,5,{4}4,
5h[4:1],{8}1,1,7h[4:1],{16}E2,B2,B3,E4,{8}5h[4:1],
{16}E3,B2,B1,E1,{8}7h[4:1],{16}A2,E3,E4,A4,{8}5h[4:1],{16}A2,E2,E1,A8,
{8}5,5,6/2,6,7/3,3,8/4,4,
{16}1,3,1,3,8,4,8,4,7,5,7,5,{8}6bx,2bx,
{4}8-4b[8:1],8b/Cf,{8}2-5[8:1],2-7[8:1],{4}2,
{8},4,4/8,8,5/8,5,5/7,7,
{4}7/6-2[8:1],6,{8}8-5[8:1],8-3[8:1],{4}8,
{8},6,6/4,4,4/8,8,8/2,2,
1-5b[8:1],3,1,2>4[8:1],7,2,6<8b[8:1],3,
6,5-1[8:1],7,5,6-3b[8:1],2-7[8:1],6,2,
5,5,4/6,6,3,3/7,2/8,8,
1bh[8:1],6,6,1bh[8:1],4,4,1bh[8:1],5,
1-5b[8:1],1,{4}1b/Cf,{8}6-1[8:1],6-3[8:1],{4}6,
{8},8,8/4,4,1/4,1,1/3,3,
{4}3/2-6b[8:1],2,{8}4-1[8:1],4-7[8:1],{4}4,
{8},3h[8:1],1h[8:1],8h[8:1],{16}6x,,,7x/1x,,,{8}2x/8x,
{4}8h[4:1],{8}4,4,6h[4:1],{16}E4,B3,B2,E2,{8}8h[4:1],
{16}E3,B3,B4,E5,{8}6h[4:1],{16}A3,E3,E2,A1,{8}8h[4:1],{16}A3,E4,E5,A5,
7x,6,5,4,3,2,1,8,3x,4,5,6,7,8,1,2,
7x,6,5,4,1x,2,3,4,1x,8,7,6,{8}2bx,4bx,
{4}3h[4:3],E1/B1/B8,B5/B4/E5,{8}C,3h[4:3],
,1,1,8,8,7,{4}4/6,
{8}6h[4:3],8,1,1,2,2,3,3/5h[4:1],
,E2,C,E6,{16}E4/B4/B3,,,B7/B8/E8,,,{8}Cf,
8-4b[8:1],8,1-3[8:1],1,7-5b[8:1],7,1-5[8:1],1,
8-6b[8:1],8,2-4[8:1],2,7-4b[8:1],7,3-8[8:1],3,
6-1b[8:1],6,2-5[8:1],2,7,8,1,2,
6b/3,5,4,3b/6,4,5,3b/6b,4,
5-1b[8:1]/4-8b[8:1],5/4,{4}Cf,3xh[8:3],{8}6x,6xh[4:3],
,8,8,1,1,2,{4}3/5,
{8}3h[4:3],1,8,8,7,7,6,6/4h[4:1],
,E8,C,E4,{16}E6/B5/B6,,,B2/B1/E2,,,{8}Cf,
{4}1h[4:1],{8}4,4,3h[4:1],{16}E6,B6,B7,E8,{8}1h[4:1],
{16}E7,B6,B5,E5,{8}3h[4:1],{16}A6,E7,E8,A8,{8}1h[4:1],{16}A6,E6,E5,A4,
2x,3,4,5,6,7,8,1,6x,5,4,3,2,1,8,7,
2x,3,4,5,8x,7,6,5,1x,2,3,4,{8}7bx,5bx,
{4}6h[4:1],2h[4:1],{2}Ch[2:7],
E
