&title=Umikaze Moment
&artist=*wakadori + saaa
&first=0
&des=Natsuzuki Moment
&lv_5=14
&inote_5=(145)
{4},,,,,,,,
{4}6h[4:1],5h[4:1],4h[4:1],3h[4:1],
{8}6,5,4,3,{16}6-4[8:1],4,,3h[16:3],{8},,
{4}3h[4:1],4h[4:1],5h[4:1],6h[4:1],
{8}3,4,5,6,{16}3-5[8:1],5,,6h[16:3],{8},,
{4}7h[4:1],5h[4:1],4h[4:1],2h[4:1],
{8}7,5,4,2,{16}7-4[8:1],4,,3h[16:3],{8},,
{4}2h[4:1],4h[4:1],{8}5h[8:1],6h[8:1],3h[8:1],4h[8:1],
{1}2b>2[16:9]*>3-6q2[16:9],
{12}4x/8x,4x/8x,4x/8x,3x/7x,3x/7x,3x/7x,{16}2b-7[16:1]/6b-3[16:1],,,2b/6b,,,,,
{8}5x-1[8:1],5,4-2[8:1],4,6-8[8:1],6,5,4,
{24}3,,3,5,,5,4,,4,6,,6,4,,4,5,,5,3,,3,6,,6,
{8}4-8[8:1],4,5-7[8:1],5,3-1[8:1],3,4,5,
{24}6,,6,4,,4,5,,5,3,,3,{16}6x,5x,,3x/4x,,1x,8x,2x,
{8}7x-5[8:1],7,1-3[8:1],1,8-4[8:1],8,1,2,
{24}3,,3,4,,4,5,,5,6,,6,2,,2,4,,4,5,,5,7,,7,
{8}2x-4[8:1],2,8-6[8:1],8,1-5[8:1],1,6,7,
{32}7,6,5,4,3,2,1,8,7,6,5,4,3,2,1,8h[2:1],E3,E4,E5,E6,E7,E8,E1,E2,E3,E4,E5,E6,E7,E8,E1,E2,
{4}E3f,E6,E5,E4,
{8}B6,B5,B4,B3,{16}E8/B8,,,E2/B2,,,E6/B5,,
{8}E3,E4,E5/E7,{16}E6,Ch[16:5],{8},,E2,E1,
{8}E8/E5,E7,E6/C,E5,{16}E4/E1,,E3,C,{8}E2,E1,
{8}E8/E5,,{16}B6/E7,B3/E3,,Ch[16:5],{8},E8,E1,E2,
{16}E6/B5,,B3/E4,E8/B7,,B1/E2,,Ch[16:5],,,,,E6,,E5,,
{16}E4,,E8/B8/B7,B2/E3/B3,,B6/E6/B5,,1hx[16:5],,,5,,6,,7,,
{24}1b/8b,,,6,5,6,4b/7b,,,3,4,3,{16}2b>5[16:1]/5b<8[16:1],2b/5b,,2bx/5bx,,,,,
{16}1x-5[8:1],,8,,1-3[8:1],,6,,1-5[8:1],4,,4,1,,6,,
{24}7,,7,4,,4,5,,5,2,,2,7,,7,5,,5,4,,4,2,,2,
{16}7x-5[8:1],,1,,7-3[8:1],,4,4,7-5[8:1],,2,,7,,1,,
{24}2,,2,4,,4,3,,3,6,,6,5,,5,7,,7,1h[8:1],,,8h[8:1],,,
{16}2x-4[8:1],,7,,2-6[8:1],5,,5,2-4[8:1],,7,,2,,8,,
{24}7,,7,5,,5,6,,6,3,,3,4,,4,2,,2,8h[8:1],,,1h[8:1],,,
{16}8x-4[8:1],,1,1,8-6[8:1],3,,3,8-4[8:1],,5,,8,,3,,
{24}2h[12:1],,4,4h[12:1],,5,5h[12:1],,7,{16}7h[16:1],1x,
{24}8,,2,7,,,3x<7[4:1]/7x-4[8:1],,,,,,
{4}7x>3[4:1],4-1b[8:1],4bxqq8[8:5],8,
{4}7-4[8:1],7,1bx,2-5[8:1]/6>2[4:1],
{4}2x<6[4:1],5-8b[8:1],5bx>7[2:1],1,
{16}4,,,,3,,,,2x/4x,2/4,,3/7,3x<7[4:1]/7xv4[8:1],,2/8,,
{4}7x>3[8:3],4-1b[8:1],4bxqq8[8:5],8,
{4}7-4[8:1],7x,1bx,2v5[8:1]/6>2[4:1],
{4}2x<6[8:3],5-8b[8:1],5bx>7[2:1],2<8<7<6>5>4>3>2<1<8<7V53V17p5[16:31],
{4}3xh[1:1],,,,,,,{24},E3,E2,E1f,E8,E7/Ch[48:34],,
(116)
{4},,,
{16}5,4,6h[8:1]/5h[8:1],,,,4h[8:1]/5h[8:1],,,,
{16}3h[8:1]/4h[8:1],,,3/4,,,5,4,
{16}6h[8:1],,5h[8:1],,4h[8:1],,3h[8:1],,4,,2/5,2/5h[8:1],,,
{16}4,5,3h[8:1]/4h[8:1],,,,4h[8:1]/5,,
{24},5h,4h,{16}6h[8:1],,,5h[8:1],,,4,3,
{16}3h`4h,,,6h`5h,,7,1,8,1h`7h,,,8h`2h,,
{16}3,5,4,4h[8:1]/6h[8:1],,,,3h[8:1]/5h[8:1],,,,4h[8:1]/7h[8:1],,,2h[8:1]/5,,
{16}4,3,5,5/6,,7/8,,1/2,,3/4,,5/6,,4/7,4/7h[8:1],,5,7,1,
{16}2h[8:1]/4h[8:1],,,,5h[8:1]/7h[8:1],,,,8,1,,2/7,,,4/5,,
(82)
{32}6/7,,,8/1,,,2/3,,,5/4,,,{16}6h/3h,,7h/2h,,
{16}8-4[57#24:1]/1-5[57#24:1],,{64},{32}8h[32:5]/1h[32:5],,,,,,,
(145)
{1}8bxV26-4V62-8b[16:9]/1bxV73-5V37-1b[16:9],
{12}7b/8x,1b/6x,2x/5b,1x/2b,3x/8b,4b/7x,{16}5x-2[16:1]/6bx-1[16:1],,,A6/A5/D6f,,,,,
{4}3h[8:5]/8,1,2,4,6h[8:5]/5,7,8,1,
{4}2h[8:5]/4,6,8,2,{8}4/3,8,6/5,1,{16}8bv5[16:1]/2bv5[16:1],8/2,,8b/2b,,,6xh[4:1],,
{8}7bx,5h[4:1],8,4h[4:1],1,3h[4:1],2,1,
{8}8-4[8:1],8,1-3[8:1],1,7-5[8:1],7,4,3,
{24}2,,2,4,,4,5,,5,7,,7,3,,3,1,,1,8,,8,6h[8:1],,,
{32}7b,8,1,2,3,4,5,6,8b,1,2,3,4,5,6,7,{16}8b<7-5[16:1]/2b>3-5[16:1],,,8b/2b,,,,,
{16}3b-5b[8:1]/6,,2,,7/3-1b[8:1],,8,,3/8-4b[8:1],7,,6,8>3b[8:1],,7-5[8:1],,
{16}8-4b[8:1],,7-3[8:1],,8-2b[8:1],,7,,8V64[16:3],7,,1xh[16:3],8,,,,
{16}2-6b[8:1],,3,,2/8-5[8:1],,7,,8-4[8:1],1,,1,8<5[8:1],,2-6b[8:1],,
{16}8-4[8:1],,2>5b[8:1],,8,,2,,7b,8,,1b/6b,,2b,4,3,
{16}5b-1[8:1],,6,,3-8b[8:1]/5,,4,,3-7b[8:1],4,,4,3/5-8[8:1],,5-2b[8:1],,
{16}5x-1[8:1],,5x-3b[8:1],,5x-7[8:1],,5x,,5xV31b[16:3],4x,,6x,5x,,7,,
{16}8-4[8:1],,1,,8<5[8:1],,2,,8>3b[8:1],1,,7h[16:3],8-4b[8:1],,,,
{12}8b-5[8:1],7b,2b,8b-3b[8:1],1b,6b,{16}8bw4b[193.34#6:1],,,A8f/B8/C/B4/A4,,,,,
{24}2xh[12:1],,4,3,,7,8,,6,5,,1,2,,4,3,,8,1<6[8:1],,6,5,,,
{24}1-5[8:1],,4,4,,,1,,3,3,,,1/2,,2,4,,4,6,,,8,,,
{24}7xh[12:1],,5,6,,2,1,,3,4,,8,7,,5,6,,1,8>3b[8:1],,3,4,,,
{24}8-4b[8:1],,5,5,,,8,,6,6,,,{16}7b/8,1/6,,4/5b,,1/2b,3/8b,,
{8}4bqq5V71b[4:2]/7h[4:2],,,,,,,5/2b,
{8}5bpp4V28[4:2]/2h[4:1],,,,2b,,3b,,
{24}4b,,4,5,,5,6,,,7b/8,,,5b,,5,4,,4,3,,,2b/1,,,
{12}3b/8,5b/6,4/7b,1/6b,3/4b,2b/5,{16}1b>4b[193.34#12:1]/8b<5b[193.34#12:1],,,{48}1b/8b,D2/D8,D3/D7,D6/D4,D5f,,,,,,,,,,,
{4}6b<2p2>6<7>8>1>2b[4:9]/2b>6p6<2>3<4<5<6b[4:9],,,,,,,,,,,,
E
