&title=THE CELESTIA 180
&artist=Sobrem / Sound piercer “Espitz” Gt.NeLiME
&first=0.05000001
&lv_5=14+
&des_5=9107
&inote_5=
(160){4},,,,,,,,,,,,{2}E1,
B2,
B4,B6,
{8}E2,E8,E3,E7,{4}E5,E1,
B2/E3/B3,B7/E8/B8/B4/B3/E4,{2}B6/B7/B2/B3/B8/B1/B5/B4/Cf,
{4}E1,E2,E3,E4,
E5,E6,E7/E3,{8}E1,C,
{4}E5,B6/E6/B3/E4/A6/A3,E8/B7/E2/B2/A7/A2,E1/B8/B1,
(150){8}1,8,2,7,3,6,4,5,
,Cfh[8:13],,,,,,,,,,,,,,,(180){4}8h[4:1],
{32}1,2,3,4,,,,,{16}5,6,4,6,3,6,2,6,
{4}1h[4:1],{32}8,7,6,5,,,,,{16}3,4,3,5,3,6,3,7,
2h[16:1],8,2h[16:1],7,2h[16:1],6,2h[16:1],5,{4}4x<7[8:1]/3x>8[8:1],4/3,
{32}E1,E2,E3,E4,E5,E6,E7,E8,D1,D2,D3,D4,D5,D6,D7,D8,{2}D1/Cf,
{16}2,1,3,8,4,7,5,6,4,5,3,6,2,7,1,8,
{32}1b,2,3,4,5,6,7,8,1b,2,3,4,5,6,7,8,{4}1b-5[8:1],{8}1,A5f,
{16}6x,5x,6x,5x,{32}6b,7,8,1,2,3,4,5xh[32:1],,,{16}6x,5x,6x,{32}5b,4,3,2,1,8,7,6,
5/1,2x,3x,4x,5x,6x,7x,8x,1x,2x,3x,4x,5x,6x,7x,8x,{2}1b/Cf,
{16}2,1,{8}2,{16}3,4,{8}3,{16}4,5,{8}4,{16}5,6,5,6,
{24}5b,4,3,1b,8,7,4b,3,2,8b,7,6,3b,2,1,7b,6,5,{4}4b/C,
{16}1,8,2,7,1,8,2,7,{32}1,2,3,4,5,6,7,8,{4}1/5,
{16}1b,5,2,6,3,7,4,8,{4}5bh[4:1],Cf,
{16}4,5,4,6,4,7,4,8,4,1,4,2,4,3,4,5,
4<7[16:3],,,7>2[16:3],,,{8}2>5[16:3],,,{4}C,
{16}6b,5,6,4,6,3,6,2,6,1,6,8,6,7,6,5,
6>3[16:3],,,3>8[16:3],,,{8}8<5[16:3],{16},,,,,,,,3b,
6,3,6,2,7,2,7,1,8,1,8,1,2,3,4,
5b,4,5,4,6,3,6,3,7,2,7,2,8,7,6,5,
3b,4,2,5,1,6,8,7,1,8,2,7,3,6,4,5,
6b/3b,,,7b/1b,,,{8}4b/3b,{16},2b/8b,,,{8}6b/3b,6b/3b,
{16}4b,5,3,5,2,5,1,5,8,5,7,5,6,5,4,5,
4h[8:3],,,8h[16:3],{32},,,,,7/3,6/2,5/1,,,,,,,,,{4}Cf,
{16}4,3,5,3,6,3,7,3,8,3,1,3,2,3,4,3,
4h[16:3],,,5h[16:3],,,{8}6h[16:7],,3h[16:3],{16},,,,4b,
5,3,6,4,5,3,6,3b,4,2,5,3,4,2,5,
3b,4,3,5,3,6,3b,7,4,5,4,6,4b,7,4,8,
4b,8,3,7,2,6,1,5,8b,4,1,5,2,6,3,7,
4b,8b,3b,7b,2b,6b,1b,5b,{32}8b,7,6,5,4,3,2,1,{4}8b/Cf,
{2}E1,B2,
{8}B4,{16},,,,E6,E7,{2}E8,
E1/B8/B1,B3/E3/E4,
{8}B7/B6/E7,{16},,,,E2,E3,{2}E4,
{4}4h[4:1],3h[4:1],2h[4:1],1h[4:1],
8h[4:1],7h[4:1],6h[4:1],5h[16:3],
{12}4x,3,2,3x,2,1,2x,1,8,1x,8,7,
8x,7,6,7x,6,5,{2}4xh[4:1],
{24}8b<5[8:1],1,2,3,4,5,{4}8b,{24}1b>4[8:1],8,7,6,5,4,{4}1b,
{16}6b,,,8b-5[8:1]`4b-1[8:1],{4}8b/4b,{16},,E5,E6,E7,E8,{8}E1,
{24}1b-6[8:1],2,3,4,5,6,{4}1b,{24}8b-3[8:1],7,6,5,4,3,{4}8b,
{16}1b,,,7b-2b[8:1]/3b-6b[8:1],{4}3b/7b,{12},,,,,,B1,
B2,B3,B5,B6,B7,E1,E2,E3,E5,E6,E7,
3b,3,3,4b,4,4,5b,5,5,6b,6,6,
{8}2h[8:3],{16},,,,8,7,{8}6b/2h[8:3],6,{16}6,7,{8}8,
8b/2h[8:3],{16}7,7,,6,{8}6,{4}5b/2h[8:3],{16}4,5,6,7,
{8}8b/2h[8:3],{16}8,7,6,5,,,5b,6,7,8,1,2,3,4,
{24}6x,5,6,5,6,5,{16}7,4,8,3,1,2,8,2,7,2,6,2,
{8}5h[4:1],4,{16}4,3,{8}2,6h[4:1],1,{16}1,2,{8}3,
{16}5x,6,7,8,1,2,3,4,5x/1x,2,3,4,5,6,7,8,
{8}1x/2x,2,{16}2,3,{8}4/6,6,6,{16}6,7,{8}8/2,
{32}B1,B2,B3,B4,B5,B6,B7,B8,A1,A2,A3,A4,A5,A6,A7,A8,{2}A1f,
{16}1b,8,1,8,2,7,2,7,3,6,3,6,4,5,4,5,
3b,4,3,4,2,5,2,5,1,6,1,6,8,7,8,7,
1b,8,2,7,3,6,4,5,4,5,3,6,2,7,1,8,
1b,2,8,7,2,3,7,6,2,3,7,6,3,4,6,5,
{4}4h[4:3],{16}5,5,,6,,6,,7,{8}7,{16}2,3,
{4}4h[4:3],{12}5,5,5,6,6,6,7b,,,3b,
3b,3b,1b,1b,1b,7b,7b,7b,5b,5b,5b,
3b,3b,3b,2b/6b,2b/6b,2b/6b,2b/6b,2b/6b,2b/6b,7b-4-6[2:1]/3b-8-2[2:1],3b/7b,3b/7b,
{1},,,,{2}E1,
E2,
E3,E4,
{8}E1,E8,E7,E6,{4}E5,C,
{8}Ch[8:3],{16},,,,B8/B4,B7`B3,{2}B6`B2,
E8/E2,{4}B5/B4/E5,B8/E1/B1,
B7/B6/B5/B4/D7/D5,B8/B1/D1/B2/B3/D3,B7f/B6f/Cf,{8}2,8,
{16}1,8,1,8,1,8,1,8,1x,1,1x,1,1x,1,1x,1,
{24}1bx,2,3,4,5,6,1b,8,7,6,5,4,1,2,3,4/5,6,7,1,2,3,4/5,6,7,
{16}1,8,1,8,1,7,1,6,1,5,2,5,3,5,4,5,
{24}4,5,4,5,4,5,4,5,4,5,4,5,{2}4b,
{24}7b-5[8:1]/8b-4[8:1],1x,{12}2x,,{4}8/7-3[8:1],7-1[8:1]*-5[8:1],7,
{24}2b-4[8:1]/1b-5[8:1],8x,{12}7x,,{4}1/2-6[8:1],2-8[8:1]*-4[8:1],2,
{8}8x/4x,8x/4x,7x/3x,7x/3x,{4}6-1[8:1]/2-5[8:1],2/6,
{16}4,5,4,6,3,4,3,5,{4}4b,{16}5,6,7,8,
{24}1b<5[8:1],2,3,4,5,6,{4}1b,{24}8b<4[8:1],1,2,3,4,5,{4}8b,
{32}1b,2,3,4,5,6,7,8,1b,2,3,4,5,6,7,8,{4}1b/Cf,{8}6b/3b,1b/8b,
{16}1,8,2,7,{32}1b,2,3,4,{8}5h[8:1],{16}8,1,7,2,{32}8b,7,6,5,{8}4h[8:1],
{24}1b,2,3,4/5b,6,7,1b,2,3,4/5b,6,7,{32}1b/8b,2x,3x,4x,5x,6x,7x,8x,{4}1x,
8b/1b>3[8:1],7/1-4[8:1],6/1-5[8:1],1>3[8:1]/8<6[8:1],
1/8-5[8:1],4/8-4[8:1],3/8<6[8:1],2/8,
{8}3b/5b,7b/1b,2b/8b,6b/4b,{4}7b-4[8:1]/1b-4[8:1],7b/1b,
{8}6h[8:3],{16},,,,2,3/7,{4}8b-4[8:1]/4b-8[8:1],8/4/Cf,
{8}7/1>3[8:1],7,8/1-4[8:1],8,7/1-5[8:1],7,8/1-6[8:1],8,
1/8x-5[8:1],8x,1/8<6[8:1],1,2/8-4[8:1],2,1/8,1,
8b/1b,{16}6,5,7,3,4,2,6,4,8,3,5,1,{8}7h[16:1],
{24}1x,8x,1x,8x,1x,8x,1x,8x,1x,8x,1x,8x,2x,7,2,7x,2x,7,3,6x,3x,6,3,6x,
{4}5bx/4bxh[4:1],{16}6,6,,6/5,,6/5,,6/5,6/5,4x,3x,2x,
{4}8b/1bxh[4:1],{16}8,8,,8/7,,8/7,,8/7,8/7,6x,5x,4x,
{4}2b/3bxh[4:1],{16}2,2,,2/1,,2/1,,2/1,2/1,8x,7x,6x,
{4}5h[32:23],{32}6bh,7,8,1,2,3,{16}4,{32}6,7,8,1,2,3,{16}4,{4}Cf,
{8}5/4,6,{16}4,4,{8}6,{16}4,6,4,5,4,6,{8}4,
{16}7x/3x,8x/2x,1x,2x/8x,3x/7x,8x/2x,1x,2x/8x,3x/7x,2x/8x,1x,8x/2x,7x/3x,8x/2x,1x,8x/2x,
{8}3x/7x,6x,{16}4x,4x,{8}5x,5/4,{16}4,5,3,5,2,5,
2,5,2,7,2,5,2,7,3,6,3,8,3,6,3,8,
{4}2b/1b,{16}3/8,8/3,,7/4,,7/4,,6/5,,6/5,,6/5,
{4}6/5,{12}7/4,7/4,7/4,{32}7h[4:1]/4h[4:1],,,,,,,,,6/3,5/2,4/1,{96},,,,,,,,,,,,{12}1x,
1,1,3x,3,3,5x,5,5,7x,7,7,
1x,1,1,2x/6x,2/6,2/6,3x/7x,3/7,3/7,4b-1b[8:1]`8b-5[8:1],4b/8b,8b/4b,
{1}8b/4b,
,1-4-7-2-5-1b[4:9],
E
