&title=真昼の月明かり
&artist=月詠み
&first=0.015
&des=で、踊りましょ。
&lv_5=13+
&inote_5=(140)
{1},
{8},,,,,E1,C,,
{8}3h[4:1]/5h[4:1],,,,4h[4:1]/6h[4:1],,,,
{8}3/5,3h[4:1]/5-8[8:1],,,,B3,B5,,
{8}4h[4:1]/7h[4:1],,,,2h[4:1]/5h[4:1],,,,
{8}46,4/6-4[8:1],,3,2v5[8:1],,B7/B6,,
{8}8<5[16:3],,1,2,3>8[16:3],,6,7,
{8}6>3[16:3],,1,2h[8:3],,4,5-1[8:1],,4/5b,
{16}4,,2,,2,,3,6,5,7,2,8,4,6,
{8}1xpp8[4:1],1x,,6x,6x<1[8:1],,2b,,
{16}3,,1/8,,6,5-3[12:1],,8,,7,7,,1>6[16:3]/8,,2,,
{16}1/6,,8,,7,8,,3/7V51[16:3],,,B2/B3,,B2/B3,,,,
{16}4/8,,6,,3,5,,2pp1[4:1],,,8,,7x,,6,,
{16}5xh[8:1],,8,6,2,1,3,7xh[8:1],,8,6-2[8:1],4,7x,,5/6,,
{16}3b,,1/7,,3,5-7[12:1],,2,,1,1,,8<3[16:3]/2,,3,,
{16}28,,1,,2,1,,3V15[16:3]/7,,,B7/B6,,B7/B6,,,,
{16}4/8,,2,,7,1,,4pp7[4:1]/5,,,1,,2x,,3,,
{16}4xh[8:1],,6,1,4,2,8,5xh[8:1],,6,2-6[8:1],8,4x,,1/2,,
{8}7x,7,4,3,2>5[8:1]/5,,6,6,
{8}7v4[8:1],5>1[8:1]/6,,,,5,4/6-8[8:1],3,
{8}2-5[8:1],,7<4[8:1],8,1-5[8:1],,6,7,
{8}8<3[4:1]/3,,2/8,1h[8:3],,B3,B7,,
{8}6h[4:1],,4,3,2>5[8:1]/1,,8,7,
{8}3q5[4:1]/6,3/6,,,,7,8-4[8:1]/4,1/3,
{8}2h[4:1]/8b,,4-1[8:1],3/5,6h[4:1]/4b,,5<1[8:1]*q1[8:1],4/7,
{8}5b,,3-7[8:1],2/8,6b>2b[8:1]/3b,,6b/1bw5[32:3],,
{48}1bqq3[2:1],B1,Cf,B4/B5/B6,,,{8},{4},,,
{8}4h[16:2]/5h[16:2],,2h[16:2]/8h[16:2],,1h[16:2]/6h[16:2],,3x/7x,,
{16}3/4,,2h[8:1],,5,3,6,4,7h[8:1],,1,,2,5,4,7,
{16}3x,5,1,1,6x,4,8,8,3x,7,1,1,5x,3,6,4,
{16}8b,,3,4,2,,8,,1/7,,{24}5,6,4,{16}5,,1,,
{8}4/8,2pp3[16:2]/6pp7[16:2],3/7,2b/6b,,1x/5x,3/7,4/5,
{16}1h[8:1],,4,2,7h[8:1],,5,8,3h[8:1],,6,4,5h[8:1],,3,4,
{16}2xh[8:1],,5,3,1xh[8:1],,4,6,8x,8x,5,3,1x-4[8:1],,8,,
{8}7xh[4:7],,,,,,,,E1,,E2,,E3,,E4,,
{8}5-1[8:1]/6,,8,7,6/5>2[8:1],,8,7,6/5-3[8:1],,8,7,6/E3,,E7,,
{8}8h[4:1],,,1,3h[4:1]/7,,,5,6h[4:3]/2,,E5,,C,,E1,,
{8}4-8[8:1]/3,,1x,2,3/4<7[8:1],,1x,2,3/4-6[8:1],,1x,2,3/E7,,E3,,
{4}3-5[4:1],,7-3[4:1],,1>6[16:4],,,,
{8}E3`E4,,,,E6`E7,,,,3h[4:1]`5h[4:1],,,4h[4:1]`6h[4:1],,,E1`E2,,
{8}5h[2:1],,,,3h[2:1],,,,4q5[2:1],,,,,,,,
{8}4/5,4,4,4,6,6,6,6,3,3,3,7,7,7,1/8,1,
{16}2,8,2,8,2,8,2,8,3,7,4,5,2,,8,,
{8}3b/7b,2b/5b,4b/6b,1b/Cf,,{16}2b,,6x,4x,5x,3x,
{16}8b<5[8:1],,,2,8V24[16:3],,1,,7/8,,,,5>2[8:1],,1,,
{16}6p4[4:1],,7,,6/1,,1h[8:3],,,,3,,3-7[32:3],,,,
{16}2>8[16:3]/3,,,8,2,,1v6[8:1]*v4[8:1],,1,,,,,,3/7,,
{16}2q6[8:1],,5,,7pp1[8:1],,8,,3pp5[8:1],,,,8w4[8:1],,,,
{16}8b,,,1,7q3[8:1],,2,,5-1[8:1]/7,,,,5<8[8:1]/4,,2,,
{16}5/3q5[4:1],,1,,8/3,,8h[8:2],,,,6,,5-1[8:1]/7<4[8:1],,,,
{16}7b/5b,,,,8-4[8:1]/2-6[8:1],,3/7,,8b/2b,,,,3/7,,2/6,,
{16}1x/5x,,1x/5x,,,,3x/7x,,3xv1[8:1]/7xqq5[8:1],,,,3b/7b,,,,
{16}8b,,3x,5x,4x,6x,,1x/8x,1x/8x,,{24}2,3,4,{16}5b/7b,,1b/8b,,
{16}6b/2b>5[8:1],,,7,2-6[8:1],,1,,8-4[8:1]/2b,,,1,8,,2,,
{16}3bpp6[4:1],,1/8,,7,,7h[4:1],,,,8,,1>4[8:1]/6q2[8:1],,,,
{16}6/1b<6[8:1],,,5,1,,4w8[8:1],,3/5,,,,,,2/6,,
{16}4v1[8:1]/8,,1/5,,7qq5[8:1]/4,,6,,3v1[8:1],,,,8w4[8:1],,,,
{16}8b,,,2,7-3[8:1],,6/8,,1-5[8:1]/7b,,,2,1,,4,,
{16}8b<2[4:1],,1/2,,3,,1h[4:1],,,,8,,8>3[8:1]/7q4[8:1],,,,
{16}8b/7b,,,,5<8[8:1]*>2[8:1],,6/4,,5b,,,,1,,7/3,,
{16}5b/2b,,8b/4b,,6b/3b,,7b/1b,,,,6,,3,5,4,6,
{16}1b-5[8:1],,,7,1<6[8:1],,8,,1b/4q8[8:1],,,3,4,,2,,
{16}1b-5[8:1],,8>7[4:1],,1,,8,,,,1,,8v3[8:1]/3,,,,
{16}8b/4<7[8:1],,,2,4qq5[16:4],,1,,4/8,,7h[4:1],,,,8,,
{16}2-8[8:1],,3,,7-3[8:1],,6,,4<8[8:1],,,,1w5[8:1],,,,
{16}1b,,,,7-4[8:1]/3-8[8:1],,6/2,,7b/3b,,,,1-3[8:1],,8-4[8:1],,
{16}1b-5[8:1],,8b-6[8:1],,1b,,8b,,,,1/8,,2-5[8:1]/7-4[8:1],,,,
{16}2b/7b,,,,1-5[8:1]/8-4[8:1],,3/6,,1b/8b,,,,2b,,6/4,,
{16}8b,,3b,5b,1b,,7b/8b,,3b/6b,,,,4z8[8:1]/5s1[8:1],,,,
{16}Cf/B3/B6,,,,2x,,5/3,,6,4,5,3,8,2,6,4,
{8}8bqq1[4:1],8b,,3b,3b>8[8:1],,{48}7b,E7,B6,,,,,,,,,,
{16}3x/4x,,8,,1,7v4[32:3],,2,,3,3,,2/8<1[16:4],,1/7,,
{16}8/6h[8:1],,,,7,7,,6/5>2[32:4],,,B6/E7,,B6/E7,,,,
{16}1/7,,8,,4,5,,2h[16:2],,1,4,6,8,,3/5,,
{16}2xh[8:1]/8,,1,3,5,8,7,5xh[8:1],,8,4<7[8:1],6,2x,,4/3,,
{16}1b,,2/8,,6,5-2[32:3],,7,,8,8,,7/1>8[16:4],,2/8,,
{16}1/3h[8:1],,,,2,2,,7<4[8:1]/1,,,E3/B3,,E3/B3,,,,
{16}2/8,,3,,5,4,,7h[16:2],,1,5,3,8,,1/7,,
{16}2/4xh[8:1],,8,6,2,1,5,7xh[8:1],,8,5,3,2b,4b,6b,8b,
{1},
E
