&title=白昼À La Mode
&artist=Mira-Cra Park!
&first=0
&des=白川彩羽
&clock_count=4
&lv_5=13+
&inote_5=(129)
{1},
{24}2>7[8:2],,,,,,7<2[8:2],,,,,,2<2[8:2],,,,,,C,,,,,,7h[8:1],,,,,,1/6,,,,,,6,,5,,,5,4,,,3/4,,,2-6[8:1],,,8-4[8:1],,,2,,,8,,,2,,8,1,,,7b/8b,,,,,,4,,3,,,4,3h[8:1],,,4,,,6,,5,,,6,5h[8:1],,,6,,,8,,1,,,1,,,8,1,,,8q5[8:1],,,8/1,,,8b,,,,,,
{24}5,,,4,,,4,,3,,,3,,,2,,,2,1,,1,8,,7,6,,,6,,,5,,5,,,4,,,4,,,3,2,,,,,,3,,,4,,,4,,5,,,5,,,6,,,6,7,,7,8,,8,1,,,1,,,2,,2,,,3,,,3,,,4,5,,,,,,
{24}3,,,7,,7,2,,6,3,,,5,,,4-1[16:1],5,,4,,,5/4,,,8h[8:1],,,,,2,7,,7,2,,2,6h[8:1],,,5h[8:1],,,4h[8:1],,,3h[16:1],,,6,,5,7h[8:1],,,3,,4,2h[8:1],,,7,8,,,8,,7,,,7/8,,,4/5,,,3/6,,,2/7,,,1/8,,,1-5[8:1],,7,3,,5,1b,,,,,,5/7,,,6/4,,,
{16}5,3,4/2,,5,3,6,4,7h[8:1]/5h[8:1],,,,3,8,3,7,3,6,,,6,5,5,4,3,,,7/8,6h[8:1],,4h[8:1],,3h[8:1],,1,,8,4,7,3,6,,2,,
{24}7h[8:1],,,B6/B5/E6,,,1h[8:1],,,B8/E8/E1,,,1-5[32:3],,8,2,,8,1b,,,,,,
{24}5,,,4,,,4,,,5,,4,5,,5,4,,,5/4,,,5/4,,,6h[8:1],,,,7h[8:1],,,,,8h[8:1],,,1h[8:1],,,2h[8:1],,,3h[8:1],,,,,,1,,,1,,,8,,,1,,8,1,,8,,,1x,1hx[8:1],,,8x,,,
{32}8hx[8:1],E7,B6,B5,E5,,,,1hx[8:1],E3,B3,B4,E5,,,,7hx[8:1],E7,E6,E5,E4,,,,2hx[8:1],E3,E4,E5,E6,,,,7h[8:1],,,,,,,,3,,,,,,,,8h[8:8]/4h[8:1],,,,,,,,7,,,,6,,,,5,,,,4,,,,3,,,,2,,,,1,,,,,,,,
{24}5,,4,5,,4,5b,,,6,,7,6,,6,7,,,3,,2,3,,,3,,2,,,E8,E2,,,E7,,,E3,,,E6,,,E4,,,5b/B5,,,4b/B4,,,,,,
{32}7x/3x,6x/2x,1x/5x,,,,,,7x/3x,6x/2x,1x/5x,,
{24},,6h[8:1],,,5h[8:1],,,4h[8:1],3,,,3,,,1/2,,,3/8,,,4/7,,,5/6,,,1-5[8:1],,8,1,,,1b/8b,,,,,,7,,5,,8,5h[24:1],1,,,C,,,2,,4,,1,4h[24:1],8,,,C,,,8h[8:1],,,7,,,1h[8:1],,,2,,,1b,,8b,1b,,8b,1b,,,,,,
{32}1x/5x,6x/2x,3x/7x,,,,,,1x/5x,6x/2x,7x/3x,,
{24},,,6h[8:1],,4h[8:1],,,2h[8:1],8,,,8,,,1/E5,,,2/E6,,,3/E7,,,4/E8,,,1-5[8:1],,8,2,,,1,,,,,,6,,5-2[12:1],,,6,5,,,6/5,,,3,,4-7[12:1],,,3,4,,,4/3,,,1,,7,2,,7,,,3,6,,,5/4,,,
{16}1,1,1b,,,,
{24}3>7[8:1],,,7>3[8:1],,,3<3[16:5],,,,,,C,,,C,,,C,,,,,,
{16}6,5,6,4,6,,7,6,7,,1,8,1,,,,
{24}6/5,,,5/4,,,4/3,,,,,2,,,1,8,,,7,,,,,,2-6[8:1],,,6,,,2,,,
{16}7,1,6,2,5,3,4,,,,7/4,,1/5,,1/8,,,,
{24}7,,7,6,,6,5,,,,,,
{16}7q5[8:1],5,7,5,7,,1,1<5[8:1],2,2,3,3,4,,
{16},,8v3[8:1]/6,,7/1,,8/2,,,,
{24}4,,4,5,,5,6,,,,,,1-5[8:1]/2,,,8,,,1/2,,,3,,,
{16}2,1,2,,1/2,,,,6h[8:3],,1,,2,,3,,
{16}4,5,4,,3,7,2,8,
{24}1,,,2,,,2,,3,,,4,,,3,,,3,2,,2,1,,8,7,,,7,,,6,,6,,,5,,,5,,,4,3,,,,,,3,,,4,,,4,,5,,,5,,,6,,,6,7,,7,8,,8,1,,,1,,,2,,2,,,3,,,3,,,4b,5b,,,,,,
