&title=蓮華
&artist=重音テト; 東北きりたん; ____natural
&first=0.025
&des=lotus
&lv_5=13+
&inote_5=(140)
{4},,,,,
{16},,4,5,3h[8:1]/6,,,6,5,6,5,6,
{16}2h[8:1]/4h[8:1],,,,7h[8:1]/5h[8:1],,,,3h[16:3],,,5h[16:3],,,4,,,,
{16}3,4,2,,3,4,2,2,5,5,4,4,6,,5h[8:1]/7h[8:1],,,,2h[8:1]/4h[8:1],,,,3h[16:3],,,
{16}5-1[12:1],,,6h[8:3],,,,,,,,3,4,3,4,3,4,
{16}2qq5[4:1],,,,7,,6,,6h[8:1],,,,3h[16:3],,,5h[16:3],,,6,,,,
{16}6,5,7,,6,5,7,7,4,4,5,5,3,,
{16}3h[8:1]/5h[8:1],,,,6h[8:1]/4h[8:1],,,,2h[16:3],,,7h[16:3],,,3h[8:3],,,,,,
{16},,6,5,6,5,6,5,6,5,4,3,
{8}2-5[8:1],,2/6>3[8:1],,4-7[8:1]/6,,
{16},,2,,2,,3,4,1,,3qq5[4:1],4,1,,4,,5,,6,,
{8}7-4[8:1],,7/3<6[8:1],,5-2[8:1]/3,,,7,8-4[12:1],,8pp1[8:1]*qq7[8:1],,8,,
{16}4,2,5,3,
{8}7-4[8:1],,7/3<6[8:1],,5-2[8:1]/3,,
{16},,7,,7,,6,5,8,,6,5,8,,4,,3q4[4:1],,2,,36,,8,,8,,6,5,8,,6,5,8,,8z4[6:1],,,,,,,,3,4,3,4,3,4,3,4,5,6,
{4}7-3[8:1],7-5[8:1]/4-8[8:1],4-7[8:1],
{16},,2,,2,,3,4,1,,3q6[4:1],4,1,,6,,7,,8,,
{4}7-3[8:1],7-5[8:1]/4-8[8:1],4-7[8:1],
{16},,3,,4-8[8:1],,,,4pp5[8:1]*qq3[8:1],,,,4,,,,
{16}2,8,1,7,
{4}2-6[8:1],2-4[8:1]/5-1[8:1],5-2[8:1],
{16},,7,,7,,6,5,8,,6p5[4:1],5,8,,4,,3,,2,,3,,6,5,8,,6,5,8-4-6[4:1],,,,4,,2,,1,,
{8}1,1,
{16}1,5,2,6,3,7,4,4,6,6,
{16}8,,6h[8:1]/5,,4,5,2,,3h[8:1]/4,,6,,5,4,7,,2/1h[8:1],,4,,8h[8:1]/7,,5,,6-1[8:1]/2-5[8:1],,,,26,,,,
{16}3h[8:1]/4,,6,,2,5,1,,6h[8:1]/5,,3,,7,4,8,,
{16}3/4h[8:1],,1,,6/5h[8:1],,8,,7v1[8:1]/3v5[8:1],,,,73,,,,
{16}2,,3h[8:1]/4,,5,5,4,,7,,6h[8:1]/5,,4,4,5,,64,,7,,35,,2,,6-3[8:1]/4-1[8:1],,,,64,,,,
{16}2,,3h[8:1],,4,2,5,3,6h[8:1],,5,7,4,6,3,,
{8}2-4[8:1],45,2/1-5[8:1],6,8/1,4,8/1-4[8:1],4qq3[8:1],
{32}1b,5,6,7,8<5[8:1],,,,,,,,
{8}8,2-5[8:1],
{24},1,,
{16}2,,6p5-3-1-7-5[4:3],,
{8}4/6,4h[2:1]/6,,,,,,
{16}1,,8-4[8:1],,,1,8-3[8:1],,1,,8<3[4:1],,,,8/3<8[4:1],,2,,
{8}8<3[4:1],2,1p8[4:1],2,1,,
{16}6<1[8:1],,,,
{32}6b/2-6[8:1],3,4,5h[32:5],,,,,2,,,,5,,,,4-7[8:1],,,,
{24},3,,4,,,1qq4<4[4:3],,,
{16}7/3,6/2,1/5h[8:5],,,,,,,,,,,,
{8}5-8[8:1],5-2[8:1],,,1<6[8:1],1>4[8:1],,,5,46,3,24,
{16}6,5,7,,18,,3/4-8[8:1],,4,,4/3,,,,2h[8:1],,5,4,6h[8:1],,4,5,3h[8:1],,6h[8:1],,5,7,4,6,3-5[16:1],5-2[8:1],2,,3,,,,
{32}8>3[8:1],7,6,5,,,,,8/4b,5,6,7,8h[4:1],,,,,,,,3,,4,,2,,2,,6,,5,,7,,7,,4,,5,,3,,3,,5,,4,,6,,6,,2,,,,8-3[8:1]*-5[8:1],,,,8,,,,8,,,,,,,,
{16}3h[8:1],,4,2,5,,4,4,6h[8:1],,5,7,4,,5,5,3h[8:1],,4,2,5,,4,4,6h[8:1],,5,7,4,,5,5,
{16}3-8[8:1],,4,4,3,,5,,6-1[8:1],,5,5,6,,4,,3-8[8:1],,4,4,3<6[8:1],,5,,3,,,,
{32}8p5[2:3],,,,,,,,
{16}8/1-4[2:1],,,,,,,,,,,,,,,,3-8[2:1],,,,,,,,,,,,7p4[2:3],,,,2-5[2:1]/7,,,,,,,,,,,,,,,,3-8[2:1],,,,,,,,,,,,5p4[2:3],,,,5-2[2:1],,,,,,,,,,,,,,2-5[2:1],,,,,,,,,,,,,,2z6[1:1]/6s2[1:1],,,,,,,,,,,,,,,,,,,,,,,,
{4}1,2,
{16}3h[8:1],,5,5,4,,6h[8:1],,4,4,7-5[8:1],,,,
{8}1,2-4[8:1],1,2/8<5[8:1],7,1>4[8:1]/8,2,1/7-4[8:1],,
{16}7,,2,,1-5[8:1],,8>3[8:1],,1,,8<5[8:1],,,,8,,,,7,,6,,5,,4-1[8:1]*-7[8:1],,,,4,,,,
{16}2,,3h[8:1],,5,3,6,4,7h[8:1],,3>1[8:1],,4,,3,,,,6,6q7[4:1],,,2,,3,,4,,3h[4:1],,,,6<2[2:1],,,,4,,,,4,,,,4,,,,4,,,,1p5[2:1]/3,,,,3,,,,3,,,,3,,,,
{8}2,2,2,2,
{32}2/6,5,4,3,2,1,8,7,6/2>5[8:1],,,,,,,,2b/6-2[8:1],7,8,1,,,,,6/8<5[8:1],,,,,,,,8-4[8:1],,,,
{24},,1,8,,,3,,,
{16}
{32}1,2,3,4,5,6,7,8,1/4,2,3,4,5,6,7,8,1/5,2,3,4,5,6,7,8,1/6,,,,,,,,
{24}1-5[8:1],,,,7,,1-6[8:1],,,7,,,1>6[4:1],,,,,,
{16}6>1[4:1],,,,1<4[4:1],,,,5>8[4:1],,,,,,,,
{16}6<1[8:1],,,,
{32}6b/2-6[8:1],3,4,5,,,,,2/4-8[8:1],,,,,,,,
{24}4/7-3[8:1],,,,1,,7,,,,,,
{32}5/1,6,7,8,1,2,3,4,5/2,6,7,8,1,2,3,4,51,6,7,8,1,2,3,4,52,,,,,,,,
{24}8-4[8:1],,,,2,,8-3[8:1],,,2,,,8<5[8:1],,,,2,,8,,,2,,,
{16}3/4h[8:1],,1,,5/6h[8:1],,8,,3/4h[8:1],,1,,
{32}6,7,8,1,2,3,4,5,
{16}1-5[8:1],,,8,1-3[8:1],,8-6[8:1],,1-5[8:1],,8-4[8:1],,1>7[8:3],,8,,
{16}1b,,,,,,,,2,5,3,6,4,,3-8[8:1]/4,,3h[4:1]/4,,,,,,37,,6-1[8:1],4,5,3,6,,3h[8:1],,
{16}6,5,6h[8:1],,
{32}4q5[4:1],3,2,1h[16:5],,,,,
{4}4,,
{32}1-5[8:1],2,3,4,,,,,1/4<7[8:1],,,,,,,,4/1-5[8:1],,,,,,,,13,,,,,,,,
{32}1,2,3,4,5,6,7,8,15,2,3,4,5,6,7,8,16,2,3,4,5,6,7,8,17,,,,,,,,
{24}8-4[8:1],,,,2,,8-3[8:1],,,2,,,8<5[8:1],,,,,,8,,,3,,,24,,,1,,,87,,,5,,,4-8[8:1]/6,,,35,,,24,,,,,,
{16}3h[8:1],,4,2,5,3,6,4,5>2[8:1],,7,,75,,,,
{16}6h[8:1],,5,7,4,6,3,5,4<7[8:1],,2,,24,,,,
{16}3h[8:1],,4,2,5,3,6,4,5>2[8:1],,7,,57,,,,
{8}6,57,3,24,3/5-1[8:1],46,57,,
{16}6h[8:1],,5,5,7,7,3,3,4-7[8:1]*-1[8:1],,4,,4,,,,
{16}3h[8:1],,4,4,2,2,6,6,5-2[8:1],7,4,8,5,,,,5h[8:1],,2,5,3,6,4,7,5qq4[8:1]*pp6[8:1],,5,,5-1[8:1],,,,5,,
{32}2,3,4,,7,6,5,4z8[4:1],,,,,,,,,,,,,,,,,,,,,
{4}1>4[2:3]/7<4[2:3],,,,,,,,
{32}3,,,,4,,,,,5,,,,,,6-3[1:2],,,
