&title=iL-Artifact
&artist=link"0
&first=0.04
&des=icrge-ArtifaCrysTal feat.nayutan
&des_5=icrgeAopt
&des_6=icrge-ArtifaCrysTal feat.nayutan
&lv_5=14
&lv_6=14+
&inote_5=(184){1},
{1},
{8}1,2,3,4h[8:5],,E8,E7,,
{8}8,7,6,5h[8:3],,,C,,
{8}2/8,3,4,6h[8:3],,E2,E3,,
{8},,C,,,E7,E3,,
{8}8,7,6,5h[8:5],,E2,E3,,
{8}1,2,3,4h[8:3],,,C,,
{8}7/1,6,5,3h[8:3],,E8,E7,,
{8},,C,,,E3,E7,,
{16}2/7,,,,1,8,1,8,2,7,2,7,3,6,3,6,
{16}4bw8b[4:1],,,,,,,,,,,,1,7,1,7,
{16}1,,,,8,1,8,1,7,2,7,2,6,3,6,3,
{16}5bw1b[4:1],,,,,,,,,,,,8,2,8,2,
{16}E4,,,,4,5,4,5,3,6,3,6,2,7,2,7,
{16}1bw5b[4:1],,,,,,,,,,,,4,6,4,6,
{16}4,,,,5,4,5,4,6,3,6,3,7,2,7,2,
{16}8bw4b[4:1],,,,,,,,,,,,5,3,5,3,
{8}5b,,3h[4:3]/4,4,,5,5,,
{8},6-1[4:1],6,,,4,4,,
{8}1b,,7h[4:3]/8,8,,1,1,,
{8},2-5[4:1],2,,,8,8,7,
{8}7,,6h[4:3]/5,5,,4,4,,
{8},3-8[4:1],3,,,5,5,,
{8}1h[1:1],,E7,E6,,E8,C,,
{16}8xb,,1,7,1,7,2,8,2,8,3,7,3,7,4,6,
{16}4xbh[8:1],,7x,6x,5/4h[8:1],,8x,1x,2/4h[8:1],,7x,6x,5/4h[8:1],,,,
{16}5/4h[8:1],6,7,8,1,2,3,4,5,6,7,8,1s5[8:1]*v4[8:1],,,,
{16}1b,,,,3/6,2,1,8,7/4,3,2,1,8/5,4,3,2,
{16}1/7,6,5,4,3,2,1,8,7/3,4,5,6,7,8,1,2,
{16}3/E8,B7,B6,E6,E4,B3,B2,E2,5x,6,7,8,1,2,3,4,
{16}1x,2,3,4,5,6,7,8,1/5h[4:1],2,3,4,,6,7,8,
{16}1,2,3,4,5<8[8:1]*v2[8:1],,,,5b,,,,1x,2,3,4,
{16}8x,7,6,5,4>1[8:1]*v7[8:1],,,,4b,,,,,,,,
{16}1,7,2,8,1,6,2,8,1,7,3,8,2,7,1,,
{16}1x,7,3,4,2,8,5,6,8,7,4,6,2,1,3,5,
{16}4,6,3,5,3,6,4,5,3,6,4,6,3,5,2,,
{16}1x,4,2,5,3,6,4,8,5,7,4,6,3h[4:1],,,,
{16}8,2,7,1,8,3,7,1,8,2,6,1,7,2,8,,
{16}8x,2,6,5,7,1,4,3,1,2,5,3,7,8,6,4,
{16}5,3,6,4,6,3,5,4,6,3,5,3,6,4,7,,
{16}8x,5,7,4,6,3,5,1,4,2,5,3,6h[4:1],,,,
{4}4b,E6,B5,B4,
{4}E4,E2,B1,B8,
{4}E8/4xh[1:1],6xV41[2:1]*V41[2:1],,,
{16},,,,3/8,,,,2,7,2,7,1xw5[8:1],,,,
{1}1>8[1:1]*>8[1:1],
{8},,,,,C,,,
{4}E3/E7,,2/7,1/8,
{4}2/7,3/6,4/5,,
{16}E3,B3,B4,E7,B7,B8,E3,B2,B1,E7,B6,B5,E3,B3,B4,E7,
{16}B7,B8,E3,B2,B1,E7,B6,B5,2x-5[8:1],,5x>2[8:1],,2x<6z2[2:1],,7x,,
{8}7xh[2:1],,,,,,,E3,
{16}E7,,,,,,,,7,2,7,2,8xw4[8:1],,,,
{1}8<1[1:1]*<1[1:1],
{8},,,,E2,E8,E4,E6,
{8}C,,,E7,,,E3,,
{2}Ch[1:1],E1,
{8}1x-3[8:1],,1-7[8:1]*-6[8:1],,1-3[8:1]*-4[8:1],,1b,,
{8}8,7/5,1,2/4,3-8[8:1],3,6-2[8:1],6,
{8}1-5[8:1],1,4-7[8:1],4,2h[2:1],,8,8,
{16}8x,7,6,5,4,3,2,1,8/4x,5,6,7,8,1,2,3,
{16}4/8,,7,5,6,,7/4,,6,5,6,5,6,5,6,,
{8}7-3[8:1],7,4-1[8:1],4,5-8[8:1],5,2-6[8:1],2,
{16}8x,,8x,1x,2x,3x,4x,5x,6xh[8:1]/2xh[8:1],,,6xh[8:1]/2xh[8:1],,,6x/2x,,
{16}6x/2x,,1x,8x,7x,6x,5x,4x,3xh[8:1]/7xh[8:1],,,3xh[8:1]/7xh[8:1],,,3x/7x,,
{8}8xb-6[8:1],,8-2[8:1]*-3[8:1],,8-6[8:1]*-5[8:1],,8b,,
{8}1,2/4,8,7/5,6-1[8:1],6,3-7[8:1],3,
{16}1x,,1x,8x,7x,6x,5xb-7[8:1],,,,1xb-3[8:1]/5xb,,,,8xb/1xb,,
{32},,,,7,,,,7,,,,7x,6x,5x,4x,3x,2x,1x,8x,7x,6x,5x,4x,3x,2x,1x,8x,7x,,,,
{16}1xh[8:1],,6,6,1xh[8:1],,6,6,1xh[8:1],,5,5,
{32}1x,2x,3x,4x,5x,6x,7x,8x,
{8}1x-5[8:1],7-4[8:1],1,7,2x-5[8:1],8-4[8:1],2,8,
{16}1xh[4:1],,8x,7,6,5,4,3,2xh[8:1]/8xh[8:1],,,2xh[8:1]/8xh[8:1],,,2x/8x,,
{16}1/7,,E6,E4,,E7,,E3,,8x,1,8,1,8,1,8,
{16}1xb-5[8:1],,1xb,,6x,7x,8x,1x,2x,3x,4x,5x,6xb-2[8:1],,6xb,,
{16}3x,4x,5x,6x,7x,8x,1x,2x,3xb/5xb,,3xb/5xb,,3xb/5xb,,,,
{16}8xb-4[8:1],,8xb,,3x,2x,1x,8x,7x,6x,5x,4x,3xb-7[8:1],,3xb,,
{16}6x,5x,4x,3x,2x,1x,8x,7x,6xb/4xb,,6xb/4xb,,3xb/5xb,,3xb/5xb,,
{16}3b/5b,,,6b/4b,,,2b/5b,,,4b/7b,,,2b/6b,,1b/8b,,
{16}3b/7b,,,4b/5b,,,2bz6[4:1]/7bs3[4:1],,,,,,,,,,
{4}E6,E4,E7,E3,
{1}1hb[4:6]/8hb[4:6],
{1},
{16}1b/8b,,,,1xb,6,5,6,1xb,6,5,6,1xb,6,5,6,
{16}1xb,6,5,6,1xb,6,5,6,3h[4:3],,,,,,,,
{32}E8,E7,E6,E5,E4,E3,E2,E1,E8,,,,,,,,
{16}3,4,2,5,3,4,2,5,3,4,2,5,3,4,2,5,3b,,,,6h[4:1],,,,
{8},,2/8,4,7/1,5,3/1,4,6/8,5,8/2,4,6h[4:3],,,,
{32}E2,E3,E4,E5,E6,E7,E8,E1,E2,,,,,,,,
{16}6,5,7,4,6,5,7,4,6,5,7,4,6,5,7,4,6b,,,,3h[4:1],,,,
{1}Cf,
{1},
{1},
{1},
{1}C,
{1}C,
{1}C,
{1}C,
{8}8w4[8:1],,8,,1w5[8:1],,1,,
{8}7-4[8:1],7,3-8[8:1],3,6-1[8:1],6,2-5[8:1],2,
{16}8x,,8,7,6,5,4xb-2[8:1],,,,8xb-6[8:1]/4xb,,,,1xb/8xb,,
{16},,2>5[8:1],,7,,2,,8,7,6,5,4/8,1,2,3,
{16}4/6-1[8:1],,,,2/6,,,,3,8,3,8,
{32}3x,4x,5x,6x,7x,8x,1x,2x,
{8}3x/6x-1[8:1],5,3-8[8:1]/6,4,7-4[8:1]/3,6,7/1-5[8:1],2,
{16}1/8,,,,7,4,6,3,5h[8:1],,,2h[8:1],,,4,,
{1}Ch[1:1]/1,
{8}1bw5[8:1],,1b,,8bw4[8:1],,8b,,
{8}2-5[8:1],2,6-1[8:1],6,3-8[8:1],3,7-4[8:1],7,
{8}1,2,3,4,5/7,8,2/4,1,
{8}7-5[8:1],6,7/1-4[8:1],2,1/8-5[8:1],7,8/2,3,
{32}2b/8b,3x,4x,5x,6x,7x,8x,1x,2x-5[8:1]*-6[8:1],,,,,,,,
{16}2b,,,,7,4,7,4,
{8}7<4[8:1],8,1,2,3>8[8:1],4,5,6,
{32}7b,6x,5x,4x,3x,2x,1x,8x,7xh[4:1],,,,,,,,
{16}2,8,4,5,1,7,4,5,
{16}3h[4:1],,,,8x,7x,6x,5x,3,5,1,8,4,6,1,8,
{8}4bw8[8:1],,4b,,5bw1[8:1],,5b,,
{8}1x-5[8:1],8-6[8:1],1-3[8:1],8-4[8:1],1>8[4:1],8,1,,
{32}4x,5x,6x,7x,8x,1x,2x,3x,4x,5x,6x,7x,8xb-4[8:1],,,,
{16},,2xb-5[8:1],,,,7xb-4[8:1],,
{16},,,,,,3/5,,2,6,2,6,3,7,3,7,
{16}4xh[8:1],,8,8,4xh[8:1],,8,8,4b,,,,3,8,3,8,
{8}3>8[8:1],4,5,6,7<4[8:1],8,1,2,
{16}3h[4:1],,,,5x,6x,7x,8x,2,1,3,5,4,6,1,8,
{16}2,4,3,5,8,7,1,8,2,4,3,5,8,6,1,8,
{1}2hb[4:1],
E
&inote_6=(184){1},
{1},
{8}2,3,4,7h[8:3],,E3,E4,,
{8}8,7,6,5,2h[4:1],,C,,
{8}7,6,5,2h[8:3],,E7,E6,1,
{8}1h[2:1],,C,,,E3,E4,,
{8}7,6,5,2h[8:3],,E7,E6,,
{8}1,2,3,4,7h[4:1],,C,,
{8}7h[4:1]/1,2,3h[4:1],7,6h[4:1],3,2h[4:1],7,
{8}8h[4:1],,C,,,,C,,
{16}2xb/8xb,,,,3,5,2,4,1,8,5,7,4,6,3,5,
{16}1bw5[4:1],,,,,,,,,,,,6,5,6,5,
{16}6,,,,6,4,7,5,8,1,4,2,5,3,6,4,
{16}8bw4[4:1],,,,,,,,,,,,3,4,3,4,
{16}E2,,,,7,4,6,3,4,2,8,5,6,2,4,1,
{16}8b-5[4:1]*V64>2[2:1],,,,,,,,,,,,,,,,
{16},,,,2,5,3,6,5,7,1,4,3,7,5,8,
{16}1b-4[4:1]*V35<7[2:1],,,,,,,,,,,,,,,,
{8}8b,,2,2h[4:1]/8,,7,7h[4:1]/1-5[4:1],,
{8},7,7h[4:1],,,7,7h[4:1]/5,,
{8}5,,3,3h[4:1]/5,,6,6h[4:1]/4-8[4:1],,
{8},6,6h[4:1],,,6,6h[4:1]/1,1,
{8}1,,6,6h[4:1]/4,,3,3h[4:1]/5-1[4:1],,
{8},3,3h[4:1],,,3,3h[4:1]/8,,
{8},,E8,E7,,E3,E4,,
{16}4/6,,3x,5,3,5,3x,7,3,7,1x,7,1,7,1,7,
{16}1x,2,3,4,6,5,6,5,7,1,7,1,E2,B2,B3,,
{16}6,4,6,4,5,3,5,3,5,E6,B6,B7,E8,,,,
{16}1b,1b,1b,1b,2x,8,2,8,2,4,3,4,2,5,2,
{16}5,1,8,2,7,5,6,4,7,
{32}3x,2,1,8,7,6,5,4,3x/8x,7,6,5,4,3,2,1,
{16}8xh[4:1]/3x,,,,2,1,2,1,3,5,3,5,E6,B6,B7,,2,8,
{16}2,8,1,7,1,7,1,E2,B2,B3,E4,,,,
{16}7,6,5,4,8,1,2,3,4/6,7,8,1,5,4,3,2,
{16}1/7,6,5,4,1/3xV16[4:1]*V17[4:1],,,,3b,,,,,,,,
{16}2x/5x,,3h[32:1],4h[32:1],1,8,2,7,4h[32:1],6h[32:1],3h[32:1],7h[32:1],2,8,2,,
{16}1x,7,4,6,2,8,3,5,4,6,4,6,3,7,3,7,
{16}2,8,2,8,2,8,2,8,1b,1b,1b,1b,1x-6[8:1],,,,
{16}1/7-3[8:1],,8,,7/2,,,,2,4,2,4,3,5,3,5,
{16}1h[32:1],7h[32:1],1h[32:1],7h[32:1],2,8,2,8,2,8,3,7,4,6,4,,
{16}3x,4,2,5,1,6,8,7,1,6,4,5,3,6,2,7,
{16}1,8,2,7,5,6,4,7,3,8,2,7,1,8,2,1,
{16}2x,3,4,5,3x,4,5,6,4x,5,6,7,5x,6,7,8,
{4}1b/E6,B5,B4,E4,
{4}E2,B1,B8,E8,
{2}3h[4:1]/7x<4-1[2:1]*<4-2[2:1],,
{4}3h[4:3]/8,7,6,5,
{1}5h[4:7]/3V58[2:1],
{4}1,2,3,4,
{4}E5/4xh[1:1],5,6,7,
{8}8h[2:1],,3,,2,,1,8,
{16}1/7,,1x,2,3,5x,6,7,1x,2,3,5x,6,7,2x,3,
{16}4,6x,7,8,1/5x,6,7,8,1-5[8:1],,2,,1/3V16-4V27-5[4:3],,4,,
{1}3x/6xh[4:1],
{4}E8,8xz4[2:1],4,3,
{4}2s6[2:1],5,6,7,
{8}8h[2:1],,,,E3,E4,E8,E7,
{16}C,,,,,,E6,,,,,,2h[2:1],,,,
{16}Ch[4:3],,,,,,,,E1,,,,8x,1,2,3,
{8}4/6-1[8:1],,8-4[8:1]/6,,8/2-5[8:1]*-6[8:1],,2,,
{8}7/4h[8:1],6,2/5h[8:1],3,8/4h[8:1],7,6h[8:1]/2,3,
{8}4x-8[8:1],7-5[8:1],4,7,2x-4[8:1],5-1[8:1],2,5,
{16}4x,3,2,1,7x,6,5,4,2,1,8,7,6,5,4,3,
{16}2-6[8:1]/8-5[8:1],,,,2/8,,,,4/7,8,1,2,3,4,5,6,
{8}7x/3-5[8:1],2,7-3[8:1]/3,8,7/2-5[8:1],1,8-4[8:1]/2,1,
{16}8b,,3x,2,1,8,7,6,5,4,3,2,1xv4[8:1]/7xv4[8:1],6x,5x,,
{16}7/1,,,,3,5,3,5,2xh[8:1]/6xh[8:1],,,2xh[8:1]/6xh[8:1],,,2x/6x,,
{4}1b-5[8:1]/7b,1/7-4[8:1],7/5x-1[8:1]*-2[8:1],5,
{8}3/8h[8:1],2,6/1h[8:1],7,4/8h[8:1],3,2h[8:1]/6,7,
{16}8/3,,2,1,2,1,2b-5[8:1],,,,8b-4[8:1],,,,6b-1[8:1],,
{16},,,,,,2x/7x,,8,1,8,1,8,1,8,1,
{16}7xh[16:1],,1x,7x,1xh[16:1],,7x,1,7xh[16:1],,1,7,1,7,1,7,
{16}1x,,2x/6x,,3/7,,4/8,,1xb/5xb,8/4,7/3,6/2,1x<6[32:3]/5xv2[32:3],4x,3x,2x,
{16}1xb/5xb,,5x,4x,3x,2x,1,8,7/3,,6,4,,3,5,,
{16}E4,E3,E7,E6,,2x,,5x,,3,4,3,4,3,4,,
{16}2xb>5[4:1]/5xb,,2xb/5xb,,6,7,8,1,2x,3x,4x,5x,6xb<1[4:1]/2xb,,2xb/6xb,,
{16}2,3,4,5,6x,7x,8x,1x,2xb/6xb,,3xb/7xb,,8xb/4xb,,,,
{16}8xb^5[4:1]/5xb,,8xb/5xb,,4,3,2,1,8x,7x,6x,5x,4xb^1[4:1]/8xb,,8xb/4xb,,
{16}8,7,6,5,4x,3x,2x,1x,8xb/4xb,,7xb/3xb,,2xb/6xb,,5xb/1xb,,
{16}1h[8:1]/5h[8:1],,,1h[8:1]/5h[8:1],,,2h[8:1]/6h[8:1],,,2h[8:1]/6h[8:1],,,3/7,,3/7,,
{16}4h[8:1]/8h[8:1],,,4h[8:1]/8h[8:1],,,4V28[4:1]/8V64[4:1],,,,,,,,,,
{1}C,
{1}4hb[4:6]/5hb[4:6],,
{16}2b/7b,,,,3,4,2x,2x,6,5,7x,7x,4,8,2x,2x,
{16}7,1,5x,5x,2,6,4x,4x,8h[2:1],,,,,,,,
{32}E3,E4,E5,E6,E7,E8,E1,E2,E3,,,,,,,,
{16}6,5,6,5,6,5,6,5,
{16}6,5,6,5,6h[2:1],,,,,,,,,,,,
{32}E2,E3,E4,E5,E6,E7,E8,E1,E2,,,,,,,,
{8}5h[4:1],E8,2h[4:1],E4,
{8}7h[4:1],E2,4h[4:1],C,6h[2:1],,,,
{32}E3,E4,E5,E6,E7,E8,E1,E2,E3,,,,,,,,2/7,,,,,,,,
{16}3,4,3,4,3,4,3,4,
{16}3,4,3,4,3h[2:1],,,,,,,,
{1}Cf,
{1}Ch[4:18],
{1},
{1},
{1}E5,
{1},
{16}1/8,,6,5,6,5,6,5,4h[8:1]/7h[8:1],,,4h[8:1]/7h[8:1],,,4/7,,
{16}1/8,,3,4,3,4,3,4,5h[8:1]/2h[8:1],,,5h[8:1]/2h[8:1],,,5/2,,
{8}1b-5[8:1]/4b-7[8:1],,1-3[8:1]/4,,1-5[8:1]*-6[8:1],,1,,
{8}8/4h[8:1],7,6h[8:1]/3,4,5h[8:1]/7,6,5h[8:1]/1,2,
{16}7/3h[8:1],,8,5,8,5,8-3[8:1],,,,8-6[8:1]/5-1[8:1],,,,8/5,,
{16},,3/4,,2/5,,1/6,,8,6,3,5,4,7,2,1,
{8}3b-8[8:1],,1-5[8:1]/3,,7-4[8:1]*-3[8:1]/1,,7,,
{8}1/5h[8:1],2,3h[8:1]/6,5,4h[8:1]/2,3,4h[8:1]/8,7,
{16}6/3,,5,4,5,4,5,4,6h[8:1]/3h[8:1],,,7h[8:1]/2h[8:1],,,1/8,,
{2}Ch[2:1],E1,
{8}8b-4[8:1]/5b-2[8:1],,8b-6[8:1]/5b,,8b-4[8:1]*-3[8:1],,8b,,
{8}1/5h[8:1],3,8/4h[8:1],6,1/5h[8:1],2,8/4h[8:1],7,
{16}6-8[8:1]/2-4[8:1],,1/5,,6/2,,,,8,4,6,5,7,3,8,1,
{16}4,2,5,3,7,4,6,3,5,2,4,3,1,2,8,1,
{32}7,6,5,4,3,2,1,8,7h[2:1]/3,2,1,8,,6,5,4,3,,,,,,,,
{16}2,5,4,6,8,7,3,5,2,1,4,7,3-8[8:1],,7-5[8:1],,3,,7,,
{32}1,2,3,4,5,6,7,8,1h[4:1]/5,,,,,,,,
{16}7,4,5,3,1,2,6,4,
{16}7,8,5,2,4,3,8,2,7pp4b[4:1],,,,,,,,
{8}3b-8[8:1],,5b-1[8:1]/3b,,2b-4[8:1]/5b<8[8:1],,2b/5b,,
{16}7/4,,5,3,2/4,,8,1,2/7,,6,5,7,4,6,3,
{16}5,2,4,3,8,2,7b-4[8:1],,,,1b-5[8:1]/7b,,,,3b-8[8:1]/1b,,
{16},,,,,,4/7,,3,6,2,5,3,8,4,7,3,5,2,8,1,7,4,6,3,5,1,8,1,8,1,,
{16}2-6[8:1],,3,,2/8-5[8:1],,7,,8/4-1[8:1],,3,,4/7-3[8:1],,6,,
{16}7b/2,,,,2,5,4,7,5,8,2,4,3,6,5,7,1,8,2,4,3,6,5,8,2,1,3,5,4,7,1,8,
{1}2bh[4:1],
E
