&title=Hello,world![SD]
&artist=BUMP OF CHICKEN
&first=0
&des=Cyanine.
&des_5=Cyanine.
&lv_5=13+
&inote_5=(211.2){4},{8},,,,,,,,,,5,
4,,4-8[8:1],
{4}6b,6,6,6,
6,6,{8}6,4,,5-1[8:1],
{4}3,3,3,3,
3,3,{8}3,5,4,6,
{4}4,4,4,4,
6,6,{8}6,4,5,3,
{4}5,5,5,5,
5,5,{8}5,4,,4-8[8:1],
{4}6,6,6,6,
6,6,{8}4,5-1[8:1],,5,
{4}3,3,3,3,
{2}2h[4:1],{8}5,4>1[4:1],,4,
{4}5,6,7,{8}4,5<8[4:1],
,,{4}3h[4:1],,5/2,
{8}5,1,5,2,6,3,7,4,
8-5[8:1],6h[8:1],,,3b,2b,,5-1[4:1],
{4}4,3,2,{8}7-4[8:1],2h[4:1],
,,{4}1>5[8:3],{8}5,6,7,8,
{4}1-5[8:1],4,2-6[8:1],{8}6,7h[8:3],
,5,4,3,6h[8:1],5,3h[8:1],4-8[4:1],
{4}5,6,7,{8}2-5[8:1],7h[4:1],
,,{4}8<4[8:3],{8}4,3,2,1,
{4}8-4[8:1],5,{8}6,{16}4,5,{8}4,3b,
,5,4,6,3h[8:1],4,6h[8:1],5,
{4}3b/4b,6,7,{8}7,8V64[4:1],
,8,{4}1,{8}2,4,3,6-2[8:1],
5,4,{4}3-8[8:1],7-3[8:1],{8}7,1-6[8:1],
,1,{4}4h[4:1],{8},6,5,7,
{16}1,8,{8}1,{4}2,3,{8}3,4V28[4:1],
,4h[8:1],,,,6,4,7,
{4}5-2[8:1],5-8[8:1],{8}5,2h[4:1],,1V74[4:1],
,1/3h[8:1],,,3,4,,4,
{4}3-8[8:1],{8}3,7,,,7,8V25[4:1],
,8,{4}7,{8}7,5,6,3-7[8:1],
4,5,{4}6-1[8:1],2-6[8:1],{8}2,8-3[8:1],
,8,{4}5,{8}4,4,5,5,
4,4,{4}3/6,3,{8}3/4,2/5,
,,{4}3/6,,4-8[8:1],
{8}6/4,5,,4V68[4:1],,4/1,{4}2,
{8}3,5,4,6,5/7,6/4,{4}5/3,
2>5[4:1],{8}2,1,,1,{4}2h[2:1],
,,2/5,6/3,
7<4[4:1],{8}7,8,,8,{4}7h[2:1],
,,7/5,6/4,
3>8[4:1],{8}3,4,,4,{4}3h[2:1],
,,3/1,2/8,
7b-3[8:1],{8}6,5b-1[8:1],,4,{4}3bV17[16:3],
,6b,{8}5,6,,,{4}4b/7b,
{8}6,4h[8:1],{4}5<1[4:1],{8}5,3h[8:3],
,2,,,3,5,{4}4,
5b/2b,{8}3,5h[8:1],{4}4>8[4:1],{8}4,6h[8:3],
,7,,,6,4,5,5,
{4}8b/3b,{8}2,8h[8:1],{4}1>5[4:1],{8}1,7h[4:1],
,6,,7,1,8,2,1b/6b,
,,7,1h[8:1],{4}8<4[4:1],{8}8,2h[8:3],
,3,,,7,2,5,5,
{4}4b/6b,{8}4,6h[8:1],{4}5<1[4:1],{8}5/3,3h[8:3],
,2,{4}2,{8}4,6,{4}3,
5b,{8}2,2h[8:1],{4}4>8[4:1],{8}4/6,6h[8:3],
,7,{4}7,{8}5,3,7,2,
{4}2b,{8}7,7h[8:1],{4}1<5[4:1],{8}1/2,2h[8:3],
,4,4,2,6,1,7,7b-4[8:1],
,,8,2-5[8:1],,,1,7h[4:1],
,,5-1[8:1],7,,,8,2-5[4:1],
{4}6b,6,6,6,
6/8-4[4:1],6,6,6,
3/5-1[4:1],3,3,3,
3/8<5[8:1],3,{2}3V17[8:1]/4V28[8:1],
{8}6,5>1[4:1],,1<5[4:1],,5>1[4:1],,1<5[4:1],
,5>1[4:1],,1<5[4:1],,5>5[2:1],,,,,,,{2}7h[2:1],
{1}4h[2:1],
{8}3,4<8[4:1],,8>4[4:1],,4<8[4:1],,8>4[4:1],
,4<8[4:1],,8>4[4:1],,4<4[2:1],,,,,,,5,
4,,4-8[8:1],
{4}6b,6,6,6,
6,6,{8}6,4,,5-1[8:1],
{4}3,3,3,3,
3,3,{8}3,5,4,6,
4,7,4,8,3,7,4,6,
,6,,6,3,6,3,5,
{4}4,4,{8}4,5,4,6,
3,5,{4}4,{8}4,5,{4}4-8[8:1],
4b/6b,6,6,{8}6,4,
6,4,{4}6,6,5-1[8:1],
5b/3b,3,3,{8}3,5,
3,5,{4}3,{8}5,4>1[4:1],6,4,
,,{4}6,7,{8}4,5<8[4:1],
,,{4}3h[4:1],,6/3,
{8}2h[8:3],1,,8h[4:1],,7,{4}6qq3[2:1],
,,,4/2,
2>5[8:1],{8}2,8-4[8:1],,8,{4}2h[2:1],
,,2/5,6/3,
7<4[8:1],{8}7,1-5[8:1],,1,{4}7h[2:1],
,,7/5,6/4,
3>8[8:1],{8}3,5-1[8:1],,5,{4}3h[2:1],
,,3/1,2/8,
7b-3[8:1],{8}4,2b-6[8:1],,5,{4}7bV53[16:3],
,2b,{8}4,5,,,{4}3b/6b,
{8}6,4h[8:1],{4}5<1[4:1],{8}5,3h[8:3],
,2,{4}4,{8}3,5,{4}4,
5b/2b,{8}3,5h[8:1],{4}4>8[4:1],{8}4,6h[8:3],
,7,{4}5,{8}6,4,5,5,
{4}8b/3b,{8}2,8h[8:1],{4}1>5[4:1],{8}1,7h[8:3],
,6,8,7,1,7,8,1b/6b,
,,7,1h[8:1],{4}8<4[0.2841##0.2841],{8}8,2h[8:3],
,3,{4}1,{8}7,2,5,5,
{4}4b/6b,{8}4,6h[8:1],{4}5<1[4:1],{8}5/3,3h[8:3],
,2,{4}4,{16}3,4,5,6-1[8:1],7,8,1,2,
{4}3b,{8}2,2h[8:1],{4}4>8[4:1],{8}4/6,6h[8:3],
,7,{4}5,{16}6,5,4,3-8[8:1],2,1,8,7,
{4}6b,{8}7,7h[8:1],{4}1<5[4:1],{8}1/2,2h[8:3],
,,4,3h[8:3],,,5,{16}3,4,
5,6,7,8,1,2,6/3,5,4,3,2,1,8,7,{8}6b/3b,
,,6-1[8:1],6,,,2-5[4:1],2,
{4}6b,6,6,6,
6/8-4[4:1],6,6,6,
3/5-1[4:1],3,3,3,
4/5,4,{16}4,5,4,5,4,5,4,5,
4,5,4,5,4,5,4,5,4,5,4,5,{4}4h[4:1],
{8}6,5>1[4:1],,1<5[4:1],,5>1[4:1],,1<5[4:1],
,5>1[4:1],,1<5[4:1],,5>5[2:1],,,,,,,{2}7h[2:1],
{1}4h[2:1],
{8}3,4<8[4:1],,8>4[4:1],,4<8[4:1],,8>4[4:1],
,4<8[4:1],,8>4[4:1],,4<4[2:1],,,,,,,{2}2h[2:1],
{1}5h[2:1],
{8}4,6>2[4:1],,2<6[4:1],,6>2[4:1],,2<6[4:1],
,6>2[4:1],,2<6[4:1],,6>6[2:1],,,,,,,{2}8h[2:1],
{1}5h[2:1],
{8}5,3<7[4:1],,7>3[4:1],,3<7[4:1],,7>3[4:1],
,3<7[4:1],,7>3[4:1],,3<3[2:1],,,,,,,{2}1h[2:1],
{1}4h[2:1],
{4}4/5-1[4:1],3,2,{8}7-4[8:1],2h[8:3],
,,,,6,7,8,1,
{4}2h[4:1],4,7h[4:1],{8}5,6h[8:3],
,5,4,3,6h[8:1],5,3h[8:1],4,
{4}5/4-8[4:1],6,7,{8}2-5[8:1],7h[8:3],
,,,,3,2,1,8,
7,{16}4,4,{4}5,{8}6/3,{16}5,4,{8}5,3b,
,5,4,6,5b-1[8:1],5b,
E
