&title=KIRISAME MAGIC
&artist=花たん
&first=0.06
&des=NaOH
&clock_count=4
&lv_5=13
&inote_5=(150)
{1},,
{4},,,,,,,,4bw8[4:1],,,2b/6b,
{16}
3x/6x,,5h[8:1],,4,5h[16:3],,,3x,,5h[8:1],,3,5h[16:3],,,
2x,,5h[8:1],,2,5h[16:3],,,1x,,5h[8:1],,1,5h[16:3],,,
1x,,1h[8:1],,8,1h[16:3],,,7x,,1h[8:1],,7,1h[16:3],,,
6x,,1h[8:1],,6,1h[16:3],,,5x,,1h[8:1],,5,1h[16:3],,,
5x,,2,,6,5,,7,8x,,17,,2,1,,3,4x,,
25,,6,5,,7,8x,,17,,2,1,,3,4x,,
35,,46,,57,,1,8,2,7,3,6,4,5,4xb>5[4:2],,,,,,,,,,,,Cf,,,,
{16}
6<8[8:1],,5,,4,,,,5<7[8:1],,4,,3,,,,8qq5[4:2],,1,,2,,3,,4>5[4:7],,,4,,,,,
E4,,,,E3,,,,E2,,,,E1,,,,E8,,,,E7,,,,E6,,,,Cf,,,,
3>1[8:1],,4,,5,,,,4>2[8:1],,5,,6,,,,7,,6,,5,,4,,3-7[8:1],,,4,,,,,
6,,6,,5,,5,,4,,4,,3,,3,,2,7,1,8,1-5[8:1],,8,,7b,,,,6,,6,,
6,5,7,4,6-1[8:1],,5,,6b/4b,,,,Cf,,,,
{16}
3x,,24,,3,4,,4,2,,2,5,,5,4,,3x/6x,,5,,5,3,,3,6,,6,4,,4,7,,
5x/6x,,4,,5,7,,7,1,,1,8,,8,3,,1b>4v1b[8:3],,,,8b,,,,8bx,7bx,6bx,5bx,4bx/Cf,,,,
2x/7x,,3,,3,1,,1,4,,4,7,,7,2,,1x/8x,,7,,7,5,,5,8,,8,2,,2,5,,
3x/4x,,2,,2,1,,1,4,,4,6,,6,2,,1bw5b[4:2],,,,1b,,,,,,,,,,,,
{8}
6h[8:1],1,6h[8:1],8,6h[8:1],7,6h[8:1],5,6h[8:1],4,6h[8:1],3,{16}2-6[8:1],,,2,,,,,
{8}
5h[8:1],8,5h[8:1],1,5h[8:1],2,5h[8:1],3,5-8[8:1],5,4-1[8:1],4,{16}5v4[8:1],,,5,,,,,
{8}
3h[8:1],1,3h[8:1],2,3h[8:1],4,3h[8:1],5,3h[8:1],6,3h[8:1],7,{16}8<5[8:1],,,8,,,,,
{8}
2h[8:1],4,2h[8:1],5,2h[8:1],6,2h[8:1],7,1/8pp8[4:1]*qq8[4:1],,,,,,2b/6b,,
{16}
8bx<5[8:1],,,1,8,,C,,8p4[8:1],,,1,8,,C,,8bv3[8:1],,,1,8,,E4/E5,,8-2[8:1],,,3,8,,E4/E5,,
8b<5[8:1],,,1,8,,C,,8p4[8:1],,,1,8,,C,,
2xb-5[8:1]/6xb-1[8:1],,,,2xb/6bx,,,,2xbv4[8:1]/6xbv8[8:1],,3bx/7bx,,2bx/6bx,Cf,,,
1bx>4[8:1],,,8,1,,C,,1q5[8:1],,,8,1,,C,,1bv6[8:1],,,8,1,,E6/E5,,1-7[8:1],,,6,1,,E6/E5,,
1b>4[8:1],,,8,1,,C,,1q5[8:1],,,8,1,,C,,1xb/7bx,,,,4b-7[8:1]/2,,3b/5b,,4b/6b,,,,Cf,,,,
{8}
2-6[8:1],2,7-1[8:1],,3-5[8:1],3,6-2[8:1],,2,3,4,5,{16}B1/B8,,,B5/B4,,,,,
{8}
1>4[8:1],1,7-3[8:1],,2-6[8:1],2,8<5[8:1],8,{16}4,3,2,1,8,,17,,26,,35,,E3/E6,,B7/B1,,
{8}8>4[4:1],,4<8[4:1],,8>4[4:1],,4qq8[4:2],,8,7,6,5,{16}4,,,E8/C/E4,,,,,
3,,3,,6,,6,,2,,2,,7,,7,,1,8,2,7,3x-1[8:1]/6x-8[8:1],,45,,3b/6b,,,,4b/5b,,,,
{8}2-4[8:1]/8,5-7[8:1]/4,2V84[4:1],5,2,7-5[8:1],7,1,
1-4[8:1],8-5[8:1],1<3b[4:1],8,{16}1x,,,C,,,,,
{8}8-4[8:1]/4,3-1[8:1]/6,8V64[4:1],3,8,2-6[8:1],1,2,
{16}8h[4:1],,2,3,4,,26,,7-4[8:1]/1,,3-8[8:1]/5,,7bx,,3bx,,
{8}6-3[8:1],2-7[8:1]/8x,6V47[4:1],2,6,3>8[8:1],2,3,
5-8[8:1],4-1[8:1],5>7b[4:1],4,{16}5x,,,C,,,,,
7-5[12:1],,8-4b[8:1],,7,,8,,1-5[8:1],,2-4b[12:1],,1,,2,,
1,8,7,6,1b/5b,,4b/8b,,3b-7[8:1]/7b-3[8:1],,,,3b/7b,Cf,,,
{16}
1x/3x,,2,,3,4,,4,5,,5,6,,6,7,,7x/8x,,1,,2,4,,4,5,,5,7,,7,1,,
2x/8x,,3,,2,1,,1,8,,8,7,,7,6,,5bx>1>4b[8:3],,,,1b,,,,5bx,6bx,7bx,8bx,1bx/Cf,,,,
2x/4x,,1,,2,4,,4,6,,6,8,,8,2,,1x/3x,,7,,7,5,,5,3,,3,1,,1,7,,
4x/6x,,3,,3,1,,1,7,,7,5,,5,1,,8v5[8:1],,,,8,,,,3,,3,4,,8,7,,
2,7,1,8,3,6,1,8,4,5,1,8,1-5[8:1],7,3,5,1b,Cf,,,
