&title=Sunset
&artist=Alex Vourtsanis
&first=0
&des=Dororo & Aoihoshi
&lv_5=13
&inote_5=(180)
{1},
{16}3h[2:1]/5h[2:1],,,,,,,,,,,,3^6[2:1]/5,,,,
{16},,,,,,,,,,,,,,,,
{16}5h[2:1]/7h[2:1],,,,,,,,,,,,5qq1[4:3]/7,,,,
{16},,,,,,E8,E7,E6,,,,,,,,
{16}1h[2:1]/4h[2:1],,,,,,,,,,,,1-4[2:1]/4,,,,
{16},,,,,,,,,,,,,,,,
{16}3h[4:1]/5h[4:1],,,,,,2h[4:1]/6h[4:1],,,,,,1<2[4:3]/7h[4:3],,,,
{16},,,,,,,,,,,,7b,,,,
{16}6h[2:1]/4h[2:1],,,,,,,,,,,,6^3[2:1]/4,,,,
{16},,,,,,,,2,,,,2,,,,
{16}2h[2:1]/4h[2:1],,,,,,,,,,,,2pp5[4:3]/4,,,,
{16},,,,6,,,,7,,,,8,,,,
{16}8h[2:1]/5h[2:1],,,,,,,,,,,,8/5-1[2:1],,,,
{16},,,,,,,,,,,,1,,1,,
{16}8,,2-5[8:1],,,,6-1[8:1],,,,4,,4h[8:3],,,,
{16},,8,,,,,,E3,,,C,,,E7,,
{16}3,,,,2h[8:3]/4,,,,,,1,,3-5[8:1]/8,,,,
{16}7,,,,6h[8:3]/4,,,,,,5,,6-3[8:1]/5,,,,
{16}3,,,,2h[8:3]/4,,,,,,1,,3/8-4[8:1],,,,
{16}1,,,,2/5h[8:3],,,,,,6,,5,,4,,
{16}6,,,,7h[8:3]/5,,,,,,8,,6-4[8:1]/1,,,,
{16}2,,,,3h[8:3]/5,,,,,,4,,3-6[8:1]/4,,,,
{16}6,,,,7h[8:3]/5,,,,,,8,,6/1-5[8:1],,,,
{16}8,,,,4/7h[8:3],,,,,,1,,2b/8b,,,,
{16}3,,3,,4,,2-5[8:1],,,,6,,6,,5,,
{16}7-4[8:1]/4,,,,1,,1,,2,,3,,4,,5,,
{16}46,,4-1[8:1]/6h[4:1],,,,,,,,,,24,,2h[4:1]/4-1[8:1],,
{16},,,,2x-6[8:1],,,,8,,7,,4,,3,,
{16}2^5[8:1]/5,,,,7,,7,,4,,3,,2^5[8:1]/5,,,,
{16}7,,7,,4,,3,,,,3x/4x,,4x/5x,,5x/6x,,
{16}4h[4:1]/7h[4:1],,,,,,2h[4:1]/8h[4:1],,,,,,3qq2[8:3]/4pp5[8:3]
,,,,
{16},,,,,,,,1,2,3,4,1,8,7,6,
{16}1x/5x,,26,,3^8[8:1]/7^4[8:1],,48,,,,,,15,,26,,
{16}3^8[8:1]/7^4[8:1],,48,,,,,,1,,2,,3,,4,,
{16}35,,46,,57,,8h[4:1],,,,1,,2x<5[8:3]/7x>4[8:3],,,,
{16},,,,,,,,2h[16:3],,,4h[16:3],,,6,,
{16}17,,26,,3^8[8:1]/5^8[8:1],,4,,,,,,17,,26,,
{16}3^8[8:1]/5^8[8:1],,4,,,,,,7,,6,,5,,4,,
{16}38,,27,,16,,8h[4:1],,,,5,,{24}5xpp4[8:3]*pp3[8:3]/E1,E2,E3,{16}E4,,
{16},,,,,,,,1h[16:3],,,7h[16:3],,,5,,
{16}84,,73,,6^1b[8:1]/2^5[8:1],,51,,,,,,84,,73,,
{16}6^1b[8:1]/2^5[8:1],,51,,,,,,8,,7,,6,,5,,
{16}64,,53,,42,,1h[4:1],,,,8,,7x>4[8:3]/2x<5b[8:3],,,,
{16},,,,,,,,7h[16:3],,,5h[16:3],,,3,,
{16}82,,73,,6^1b[8:1]/4^1b[8:1],,5,,,,,,82,,73,,
{16}6^1b[8:1]/4^1b[8:1],,5,,,,,,2,,3,,4,,5,,
{16}61,,72,,83,,1-5b[8:1],,,,4,,4x-8b[8:1],,,,
{16}6,,6xh[4:1],,,,8,,17,,,26,,,35,,
{16}3xh[1:2]/5xp4>6[2:7],,,,,,,,,,,,,,,,
{16},,,,,,,,,,,,,,,,
{16},,,,,,,,,,,,,,,,
{16},,,,,,,,,,,,,,,,
{16}6h[1:1],,,,,,,,,,,,5,,,,
{16}5h[1:1],,,,,,,,,,,,,,,,
{16}4h[4:7],,,,,,,,,,,,3,,,,
{16}3h[4:3],,,,,,,,,,,,,,,,
{16}3-1[8:1],,,,6,,,,,,7,,7,,,,
{16}5-7b[8:1],,,,3,,,,,,2,,2,,,,
{16}4-2[8:1],,,,7,,,,,,8,,8,,,,
{16}6-8b[8:1],,,,2,,,,,,1,,1b,,,,
{16}2V48[8:3],,,,6,,6,,,,5,,5,,,,
{16}7V51[8:3],,,,3,,3,,,,4,,4,,,,
{16}3-6[8:1],,,,7,,7-2[8:1],,,,1,,1xb-3-8-4[2:1],,,,
{16}5,,5,,5,,5,,5w1[8:1],,5,,,,,,
{16}4>8b[4:1],,1,,8^5b[16:3],,7,,,,,,4>8b[4:1],,1,,
{16}8^5b[16:3],,7,,,,,,4,,3,,26,,15,,
{16}8^3[8:1],,7,,6,,5^8[8:1],,,,2,,2h[4:1],,,,
{16}1,,3,4,3,,25,,1h[16:3],,,8h[16:3],,,7,,
{16}5<1b[4:1],,8,,1^4b[16:3],,2,,,,,,5<1b[4:1],,8,,
{16}1^4b[16:3],,2,,,,,,5,,6,,37,,48,,
{16}1^6[8:1],,2,,3,,4qq4[4:1],,,,8,,8h[4:1],,,,
{16}5-2[8:1]*-8[8:1],,,,5,,,,37,,,28,,,64,,
{16}4>8b[4:1],,1,,8^6b[8:1],,7,,,,,,4>8b[4:1],,1,,
{16}8^6b[8:1],,7,,,,,,5,,4,,37,,26,,
{16}1-5[8:1],,8,,7,,6^1[8:1],,,,2,,2h[4:1],,,,
{16}1,,8,2,8,,37,,1h[16:3],,,8h[16:3],,,7,,
{16}5<1b[4:1],,8,,1^3b[8:1],,2,,,,,,5<1b[4:1],,8,,
{16}1^3b[8:1],,2,,,,,,4,,5,,62,,73,,
{16}8-4[8:1],,1,,2,,3V52[4:1],,,,6,,6h[4:1],,,,
{16}1w5[8:1],,,,1,,,,17,,,26,,,35,,
{16}3b^8b[4:1],,7,,8^6b[6:1],,1,,,,,,3^8b[4:1],,7,,
{16}8^6b[6:1],,1,,,,,,5,,46,,37,,28,,
{16}1-5[8:1],,7^4[8:1],,1,,7,,,,12,,3/8h[4:1],,,,
{16}1,,6,5,6,,47,,3h[16:3],,,1h[16:3],,,7,,
{16}6^1b[4:1],,2,,1^3b[6:1],,8,,,,,,6^1b[4:1],,2,,
{16}1^3b[6:1],,8,,,,,,4,,35,,26,,17,,
{16}8^3[8:1],,7,,6,,5pp5[4:1],,,,1,,1h[4:1],,,,
{16}4q1[8:1]*p7[8:1],,,,4,,,,26,,,17,,,35,,
{16}3^8b[8:3],,8,,1^7b[4:1],,6,,,,,,3^8b[8:3],,8,,
{16}1^7b[4:1],,6,,,,,,5,,6,,47,,58,,
{16}1^6[8:1],,4-8[8:1],,1,,4,,,,17,,2h[4:1]/6,,,,
{16}1,,7,5,7,,48,,3h[16:3],,,1h[16:3],,,5,,
{16}7^2b[8:3],,8^2b[4:1],,1,,3,,,,,,7^2b[8:3],,8^2b[4:1],,
{16}1,,3,,,,,,5,,46,,37,,28,,
{16}1xV35[16:3],,,,7,,8xV24[16:3],,,,6,,7xV13[16:3],,,,
{16}5,,6xV82[16:3],,,,4,,5xV31[16:3]*V71[16:3],,,,5b,,,,
{16}7,,6,,4,,3,,6,,5,,3,,2,,
{16}5,,4,,2,,1,,,,2,,1,,8,,
{16}7,,6,,4,,3,,6,,5,,3,,2,,
{16}5,,4,,2,,1,,,,36,,36,,,,
{16}2,,3,,5,,6,,3,,4,,6,,7,,
{16}4,,5,,7,,8,,,,7,,8,,1,,
{16}2,,3,,5,,6,,3,,4,,6,,7,,
{16}4,,5,,7,,8,,,,81,,81,,,,
{16}2,,3,,4,,5,,3,,4,,5,,6,,
{16}4,,5,,6,,7,,,,7,,8,,1,,
{16}2,,3,,4,,5,,3,,4,,5,,6,,
{16}4,,5,,6,,7,,,,36,,36,,,,
{16}6,,6,,5,,4,,5,,5,,4,,3,,
{16}4,,4,,3,,2,,,,1,,8,,7,,
{16}5,,6,,4,,3,,5,,6,,4,,3,,
{16}5,,6,,4,,3,,,,1b,,,,,,
{16},,,,,,,,,,,,,,,,
{16},,,,,,,,,,,,,,,,
{16}3-6[4:3]*-6[4:3],,,,,,,,,,,,,,,,
{16},,,,,,,,,,,,,,,,
{16},,,,,,,,,,,,,,,,
{16},,,,,,,,,,,,,,,,
{16},,,,,,,,,,,,,,,,
{16},,,,,,,,,,,,,,,,
{16},,,,,,,,,,,,,,,,
{16},,,,,,,,,,,,,,,,
{16},,,,,,,,,,,,,,,,
{16},,,,,,,,,,,,,,,,
{16},,,,,,,,,,,,,,,,
{16},,,,,,,,,,,,,,,,
{16},,,,,,,,,,,,,,,,
{16},,,,,,,,,,,,,,,,
