&title=Amateras
&artist=削除
&first=0
&des=谱面-200号
&lv_5=12
&inote_5=(155){1},
{8},,,,,,,
3pp6[1:1],,,2,2,,,1,1,,,8,8h[2:1],,7,,
6qq3[1:1],,,7,7,,,8,8,,,1,1h[4:1],,2h[4:1],,
3-6[8:1],,3,2,1-4[8:1],,1,8,7-2[8:1],,7,6,5-8[8:1],,4h[4:1],,
6-3[8:1],,6,7,8-5[8:1],,8,1,2-7[8:1],,2,3,4-1[8:1],4,5b,,
7/8,6,5,4,3,4,5,6,3h[8:3],4,5,6,5-8[8:1]/7,4/6,3/5,,
2/1,3,4,5,6,5,4,3,6h[8:3],5,4,3,2/4-8[8:1],5b,6b,,
{8}7/1,7,5,6,2/5,2,4,3,4/7,4/7,3,4,2/5,2/5,6,5,
{16}4/7,,4/7,,3,4,3,,2/5,,2/5,,6,5,6,5,
{24}7v6[8:1],8,1,
{8}2v1[8:1],,,,,,,
2/5,3,4,3,2/5,{16}3,3,4,,3,,{8}4/7,6,5,{16}6,6,5h[16:3],,,8h[16:3],,,2,,
7/4,,6,6,5,,6,,2/5,,3,3,4,,3,,6,5,6,5,6,,{16}4,4,5h[16:3],,,3h[16:3],,,
1,,
2/8,,2,,2,,2,4,3,,3,,3,,3,5,4,,4,,4,,4,6,5,,5,,5,,
7,6,8,5,8,4,7,3,7,2,6,1,6,8,5,7,5,7,5p4[2:1],,5h[8:7],,
,,,,,,,,,,,,
{8}2>5[8:1],,2/1,8,7-4[8:1],,7/8,1,
2,{24}3/5-2[8:1],6,7,8-4[8:1],,,{8}5,8,,
3<6[8:1]/5,2,8>3[8:1],,7/8,6,
{16}5-7[16:1],,,5,8-4[16:1],,,8,6<1[8:1],,6,,2,3,4,5,6,7,8,1,5,6,7,8,
1<6[8:1],,,,2/1,,,3,3>8[8:1],,,,3/4,,,5,5-2[8:1],,,,
5/6,,,7,7-4[8:1],,,,7/8,,1,,2,,2h[4:1],,3,,4,,5,,5h[4:1],,6,,7,,
8-2[8:1]/6,,8-6[8:1]/7,,8-4[8:1],,,,,,5b,,5b,,,,
{8}7<4[8:1],,7/8,1,2-5[8:1],,2/1,8,
7,{24}6/4-7[8:1],3,2,1-5[8:1],,,{8}4,1,,
6>3[8:1]/4,7,1<6[8:1],,2/1,3,
{16}4-2[16:1],,,4,1-5[16:1],,,1,3>8[8:1],,3,,7,6,5,4,3,2,1,8,4,3,2,1,
7,,7,,7,,7,8,8-5[8:1],,1,,1,,1,8,8-3[8:1],,7,,7,,7,8,8-5[8:1],,1,,2,,3,,
4,5,4,5,3,4,3,4,2,5,2,5,1,6,8,7,{32}1,2,3,4,5,6,7,8,
{4}1-4[8:1]/5v8[8:1],1b/5b,2b/6b,
7<4[8:1]/8,{8},1,1/2>5[8:1],,,8,{16}7<4[8:1]/8,,,8,,,1,,1/2h[4:1],,,,
{8}3,2/4,3-8[8:1]/5,,7,7,6,5,4-7[8:1],4,
{16}3-8[16:1],,,3,4-7[16:1],,,4,8>6[8:3],,,,7b,,,,
{8}8h[2:1],,7,,1h[2:1],,2,,8h[2:1],,7,,1,2/1,2/1,8,
3b-8[8:1]/7b-4[8:1],,3/7,,1>4[8:1],2,6/1,7,8/3,2/1,1/6,7/8,4/5-1[8:1],,8b,,
3h[2:1],,,,5h[2:1],,,,6,,3/4,,2/8,,,,
6h[2:1],,,,4h[2:1],,,,3,,2/1,,8/7,,5/6,,
3,4,6,5,4h[4:1],,3,3,4<7[4:1],,7>2[4:1],,3,,,,
6,5,3,4,5h[4:1],,6,6,5h[2:1],,3,,4h[2:1],,5,,
5p7[4:1],5h[8:5]/6,,,,,8p2[4:1],8h[8:5],,,,,1p4[8:1],1,7,,6q3[8:1],6,2,,
1p4[8:1],1,7h[8:2],,5h[8:2],,4,3,
{8}2>5[8:1],,2/6,7,8p4[8:1],,4/8,3,
2,{24}1/5-1[8:1],6/2,7/3,8-3[8:1]/4,,,{8}5,8,,
2>5[8:1]/4,1,2/7>2[8:1],,7/6,5,
{16}4-8[16:1],,,4,5-1[16:1],,,5,3>8[8:1],,3,,7,6,5,4,3,2,1,8,4,3,2,1,
7,,7,,8,,8,1,1-6[8:1],,2,,2,,1,8,8-3[8:1],,7,,7,,8,1,1-5[8:1],,2,,2,,3,,
4,5,4,5,3,4,3,4,2,1,2,1,3,8,4,7,{32}5,4,3,2,1,8,7,6,
{4}5v2[8:1]/1v6[8:1],1b/5b,7b/3b,
2-6[8:1]/1,{8},8,8/7-3[8:1],,,1,{16}2-6[8:1]/1,,,1-5[8:1],,,8,,8h[4:1],,,,
{8}6,1/7,2-5[8:1]/8,,1,1,8,7,6-2[8:1],6,
{16}5-1[16:1],,,5,4-8[16:1],,,4,3>5[8:3],,,,4b,,,,
{8}4h[2:1],,3,,5h[2:1],,6,,4h[2:1],,3,,5,7/6,7/6,8,
6b-1[8:1]/2b-5[8:1],,6/2,,8<5[8:1],7,3/8,2,1/6,3/4,8/3,5/6,1/8w4[8:1],,8b,,
