&title=-Star Divine- フィナーレ
&artist=小山百代; 三森すずこ; 富田麻帆; 相羽あいな
&first=0
&des=LOA
&lv_5=13+
&inote_5=(160)
{1},,
{32}1x/5-1[8:1],2x,3x,,,,,,6-8[8:1],,,,,,,,4-2[8:1],,,,,,,,,,,,,,,,
{16}8-4[8:1],,8,,1-3[8:1],,1,,7V51[4:1],,,,,,,,
{16}4h[16:3],,,8,,,2,,6h[16:3],,,4,,,8,,
{16}8-5[8:1]/6-3[8:1],,,,,,,,2-5[8:1],,4,,6,,,,
{32}8x/4x,7x/3x,6x/2x,,,,,,
{16},,5,5,1-3[8:1],,,7,,,8,,
{16}5-2[8:1],,5,,6-1[8:1],,6,,3pp4[8:2],,,,,,,,
{16}7h[16:3],,,3,,,5,,1h[16:3],,,7,,,3,,
{16}3v5[8:1]/7v1[8:1],,,,,,,,2,3,4,5,8,7,6,5,
{16}4pp8[4:6]/2b,,,,2,,,,2,,,,2,,,,
{16}2,,,,2,,,,2,,,,2,,,,
{16}3<1[1:1],,,,3,,,,3,,,,3,,,,
{16}4,,,,4,,,,5,,,,5,,,,
{16}7x-4[4:1],,,,3,,2,,1,,,,6,,,,
{16}2-5[4:1],,,,6,,7,,8,,,,3^8[4:1],,,,
{16}8^5[4:1],,,,4h[2:1],,,,,,,,3v1[4:1],,,,
{16}5v7[4:1],,,,,,,,2,3,4,5,8,7,6,5,
{16}4/1b,,2,,3,,46,,,,3-8[8:1],,7-4[8:1],,,,
{16},,,,2pp4[4:1],,6pp8[4:1],,,,,,,,,,
{16}3,,2,,1,,86,,,,5-8[8:1],,1-4[8:1],,,,
{16},,,,7V51[4:1],,3-1[8:1],,,,,,,,,,
{32}7,6,5,,,,,,{16}1,,1,,1/3-7[8:1],,1,,1,,,,
{32}2,3,4,,,,,,{16}8,,8,,8/6-2[8:1],,8,,8,,,,
{16}1/7w3b[8:1],,,,,,,,8/2w6[8:1],,,,,,,,
{16}17,,,35,,,1V75[4:1]/8V24[4:1],,,,,,,,,,
{16}E5f,C,E1,,,,2,,6,,3,,7,,4,,
{16}5/6h[8:3],,,8,,,2,,7-3[8:1]/3,,,,,,,,
{16}1s5[4:1],,,,,,,,,,6,,26,,,,
{16}4/3h[8:3],,,1,,,7,,2-6[8:1]/6,,,,,,,,
{16}8,,2,4,2,,8,,6,,1,,1h[4:1]/4,,,,
{16}6,,7,5,7,,3,,1,,5,,2,3,4,5,
{16}8,7,6,5,3,4,2,5,3,4,1,6,3,4,8,7,
{16}8b-4b[8:3],,,,,,,,,,,,37,26,15,48,
{16}3b-6[8:1]/7b-2[8:1],,,,3b/7b>6b[8:3],,,,3h[2:1],,,,,,,,
{16}8-4[8:1],,,3,8,,2-5[8:1],,15,,,,,,6,7,
{16}8b-4[8:1],,,,2b<3[8:3]/8b,,,,7h[2:1],,,,,,,,
{16}1-5b[8:1],,,6,1,,7-4[8:1],,84,,,,,,{24}2x,1x,8x,
{16}7b-4b[8:1]*-3b[8:1],,,,Cf,,,,{16}2b-5[8:1]*-6[8:1],,,,Cf,,,,
{16}3/7-4[8:1],,,2,7,,1-5[8:1],,48,,,,,,6,7,
{16}8-4[8:1],,3-8[8:1],,8,,3,,5<1[4:1],,,,1>5[4:1],,,,
{16}4h[4:1],,,,,,6,3,7,2,8,1,7h[4:1],,,,
{16}1bpp5[2:1],,,,,,6,,6,,,,7qq4[2:1],,,,
{16}3,,,2,,,1,,1-4[8:1],,,,,,,,
{16}56,,7,,18,,2,,35,,7,,46,,2,,
{16}35,,17,,46,,28,,3,4,5,,7-1b[2:7],,4-8b[8:27],,
{16},,,,,,,,,,,,,,,,
{16},,,,,,,,,,,,,,,,
{16},,,,,,,,,,,,,,,,
{16},,,,,,,,,,,,1,2,3,4,
{32}5-1[8:1]/6,,,,,,,,6-8[8:1],,,,,,,,4-2[8:1],,,,,,,,,,,,,,,,
{16}8-4[8:1],,8,,1-3[8:1],,1,,7V51[4:1],,,8,,,,,
{16}4h[16:3],,,8,2,,2,,6h[16:3],,,4,8,,8,,
{16}5,4,3,2,8,7,6,5,1,2,3,4,5-1[8:1]/7-4[8:1],,,,
{32}5b/7b,,,,,,,,
{16}2,,5,5,3-1[8:1],,,7,3,,6,,
{16}8-3[8:1],,8,,7-4[8:1],,7,,2V48[8:2],,,1,,,,,
{16}6h[16:3],,,2,8,,8,,4h[16:3],,,6,2,,2,,
{16}5v7[8:1]/1v3[8:1],,,,,,,,6,5,4,3,2,1,8,7,
{16}6/2qq4b[4:11],,,,,,,,,,,,,,,,
{16},,,,,,,,,,,,{24}7x,6x,5x-8[12:11],,,,
{16},,,,,,,,,,,,,,,,
{16},,,,,,,,,,,,,,,,
E
