&title=レッドブレイバー
&artist=上坂すみれ「俺、ツインテールになります。」
&first=0
&des=Tail_Star Ultimate Chain
&lv_5=14
&inote_5=(160.001)
{32},{1},3bV15[1:2]/6bV84[1:2],
{1},
{4},,1b/8b,
(160)
{16}3b,4b,3b,4b,3b-1[8:1],,,,,,7h[4:1],,,,8,,
{16}7b,8b,7b,8b,7b-5[8:1],,,,,,3h[4:1],,,,4,,
{16}3b,4b,3b,4b,3b^1[8:1],,,,,,7h[4:1],,,,8,,
{16}7b,8b,7b,8b,7b^5[8:1],,,,,,2h[4:1],,,,4,,
{16}3b-8[8:1],4b,2b,,,,,,6b-1[8:1],5b,7b,,,,,,
{8}2b/8b,2b/8bz4[8:1]*-5[8:1],,8b,,,3/6,,
{8}1b-5[8:1]/7h[4:1],,1,,6/4,6h[4:1]/4,,2-6[8:1],
{8},6,7,8^5[8:1],8,5,4,3,
{8}2h[4:1]/4b-8[8:1],,4,,1/7,1/7h[4:1],,6^3[8:1],
{8},7,8,1-5[8:1],1,4,3,2,
{8}7b-4[8:1]/1h[4:1],,7,,3/5,3h[4:1]/5,,7-3[8:1],
{8},3,2,1^4[8:1],1,4,5,6,
{8}7h[8:1]/5b-1[8:1],,7h[8:1],,2-5[8:1]/6h[8:1],,6h[8:1],,
{16}4b/5b,,4b^1[8:1]/5b,,6,,7b,,8,,2b/8b,,3,5,3,5,
{8}2b-6[8:1],6,2,7,8^5[8:1],5,8,4,
{16}3-8[8:1],,4,,3,,5,,1/6,,6,,7,5,7,5,
{8}8b-4[8:1],4,8,3,2^5[8:1],5,2,6,
{8}7-3[8:1],3,7,2,1-5[8:1],8-6[32:3],1,8,
{8}4b-8[8:1],5,4,6,7v4[8:1],1,7,2,
{16}3^6[8:1],,6,,3,,7,,8/4,,4,,3,5,3,5,
{8}2b-5[8:1],5-1[8:1],2,6,7h[8:1],8,1/6,1/6,
{16}2b,4,3,5,4,6,5,7,{32}2b-6[8:1],3,4,5,6,7,8,1,,,,,,,,,
{24}8b,7,6,5-2[8:1]*-3[8:1],,,,,,5b-8[8:1]*-7[8:1],,,,,,5b,,,,,,,,,
{8}1b/7b,2b/6b,3b/5b,4bw8[8:1],,4b,,,
{8}6h[8:1]/4,1,6h[8:1]/4,2,6h[8:1]/4,1,6h[8:1]/4,2,
{8}6/4-8[8:1],5,4/3,2,1b-3[32:3]/7b-5[32:3],,1b/7b,,
{8}4b,3b/5b,2b/6b,1b-5[8:1]/7b-3[8:1],,1b/7b,,,
{8}2b/8b,3b/7b,4b/6b,5bv2[8:1]*v8[8:1],,5b,,,
{8}3h[8:1]/5,8,3h[8:1]/5,7,3h[8:1]/5,8,3h[8:1]/5,7,
{8}3/5-1[8:1],4,5/6,7,8-4[8:1]/2,1,8/7,6,
{8}5b/3b,4/6,5/7,1/8,2b/4b,3/5,4/6,5/7,
{16}1b,8,2,7,3,6,4,5,3,4,2,5,1,6,8,7,
{16}1b,8,2,7,1/8,,1b-5[8:1]/8b-4[8:1],,,,8b/1b,,,,,,
{16}2b,1,2,3,2,4,2,5,2,6,2,7,2,8,{24}2b,3,4,
{16}5-1[8:1],,6,,7-4[8:1]/5,,8,,1h[4:1]/7,,,,5,,5/3,,
{16}2b-5[8:1]/4,,1,,8-4[8:1]/2,,1,,2-6[8:1]/8,,1,,2/8,,1,,
{16}2b,1,3,4,2,8,4,5,2b-6[8:1],,,,7,,7,,
{16}8b-4[8:1],,4,4,8,,3,,6-2[8:1],,2,2,6,,1,,
{16}4b-7[8:1],,1,1,4,,2,,8b-4[8:1]/1b,,,,4,,3,,
{4}2b-5[8:1]/4b-8[8:1],2b/4b,8b^5[8:1]/5b^2[8:1],8b/5b,
{24}6h[2:1]/1b,2,3,4,,,1b,2,3,4,,,1b^6[8:1],2,3,4,,,1b,2,3,4,,,
{16}7b,8,7,6,7,5,7,4,7,3,7,2,7,1,{24}7b,6,5,
{16}4-8[8:1],,3,,2-5[8:1]/4,,1,,8h[4:1]/2,,,,4,,4/6,,
{16}7b-4[8:1]/5,,8,,1-5[8:1]/7,,8,,7-3[8:1]/1,,8,,7/1,,8,,
{16}7b,8,6,5,7,1,5,4,7b-3[8:1],,,,2,,2,,
{24}1b^4[8:1],,,,,,5b,6,7,8,,,1b^6[8:1],,,,,,5b,4,3,2,,,
{16}1b-5[16:1],,,6b-8[16:1]/1,,,4b-2[16:1]/6,,,,4b,,7b,,1/8,,
{16}2b,4,3,4,3,4,3,4,3,4,3,4,3,4,3,4,
{16}1b,4,3,4,3,4,3,4,3,4,3,4,3,4,3,4,
{16}2b,2,4,3,6,6,5,7,{32}2b,3,4,5,6,7,8,1,2,3,4,5,6,7,8,1,
{16}2b/6b,,4b/8b-4[8:1],,,,8b/4bw8[8:1],,,,4b,,,,,
(160.001)
{8}3/6,3>6[8:3]/6,,,,,,,
{8}6/3,6<3[8:3]/3,,,,,,,
{8}3/6,3>6[8:3]*qq5[8:3]/6,,,,,,,
{16}6,5,6,5,7b/4,,,,3,4,3,4,2b/5,,,,
{8}3/6,3qq6[8:3]/6,,,,,,,
{8}6/3,6pp3[8:3]/3,,,,,,,
{8}3/6,3qq6[8:3]*qq5[8:3]/6,,,,,,,
{16}7,8,7,8,6b/1,,,,2,1,2,1,3b-8[8:1]/8,,,,
{8}3/4,4,3/5,5,3/6,6,3/7,7,
{24}3/8,,,8,7,6,5h[8:1],,,7,6,5,4h[8:1],,,5,,,1/2,,,2/1,,,
{24}8,7,6,5/3,,,2,3,4,5/7,,,1/8,,,8,7,6,5/3,,,4/6,,,
{16}4,6,3,6,2,6,1,6,{24}8h[8:1],,,,1/7,2/6,3/5,,,1b/8b,,,
{16}3,4,3,4,3,4,3,4,{24}2b,1,8,7,6,5,1,8,7,6,5,4,
{16}8,6,8,6,8,6,8,6,{24}1b,2,3,4,5,6,8,1,2,3,4,5,
{16}2,6,2,6,1,7,1,7,2b,8,2,7,2,6,2,5,
{24}2b/4,,,1/5,2/6,3/7,4/8,,,1bV75[16:3]/5bV31[16:3],,,,,,,,,,,,,,,
{8}3b/6b,3bV15[2:1]/6b,,,,,,,
{8}8b-6[4:1]*-4[4:1],,,,,,3/5,3/5,
{8}2b/6b,2bV48[2:1]/6bV48[2:1],,,,,,,
{8}1bz5[32:13]*s5[32:13],,,,,,4/6,4/6,
{8}7b-4[8:3]/5b-1[8:3],,,,,,,,
{8}2b-5[8:3]/4b-8[8:3],,,,,,6,6,
{8}7b-4[8:1]/4b,,7b/1b,,2b-5[8:1]/5b,,2b/8b,,
{24}3h[2:1]/8b,7,6,5,,,8b,7,6,5,,,8b^3[8:1],7,6,5,,,8b,7,6,5,,,
{16}2b,4,2,6,2,8,2,4,2,6,2,8,2,4,{24}1b,2,3,
{16}4-8[8:1],,5,,6-1[8:1]/4,,7,,8h[4:1]/6,,,,3,,2/4,,
{16}5b-1[8:1]/3,,1,1,5,,2,,8-3[8:1]/3,,4,4,8,,5,,
{16}2b,4,1,3,8,2,7,1,6b-2[8:1],,,,4b,,4b,,
{24}1b^6[8:1],,,,,,4b/1,3,2,1,,,8b^3[8:1],,,,,,5b/8,6,7,8,,,
{16}4b-8[16:1],,,7b-5[16:1]/4,,,1b-3[16:1]/7,,,,1b,,6b,,4/5,,
{16}1b,4,2,4,2,4,2,4,2,4,2,4,2,4,2,4,
{16}1b,5,3,5,3,5,3,5,3,5,3,5,3,5,3,5,
{16}1b,6,4,6,4,6,4,6,1b,7,5,7,5,7,5,7,
{16}1b,8,2,4,1,8,5,7,{24}1b,2/8,3/7,4/6,,,{16}5,6,4,5,
{16}1b,4,3,4,3,4,3,4,3,4,3,4,3,4,3,4,
{16}8b,4,3,4,3,4,3,4,3,4,3,4,3,4,3,4,
{16}7b,4,3,4,3,4,3,4,{32}6b,7,8,1,2,3,4,5,6/1b,8,7,6,5,4,3,2,
{8}1b/8b,2b-6[8:1]/6b,,8bz4[8:1]*-5[8:1]/2b,,8b,,,
{16}2b,1b,3b,8b,2b-5[8:1],,,,,,6h[4:1],,,,5,,
{16}7b,8b,6b,1b,7b-4[8:1],,,,,,3h[4:1],,,,4,,
{16}2b,1b,3b,4b,2bv5[8:1],,,,,,6h[4:1],,,,5,,
{16}7b,8b,6b,5b,7bv4[8:1],,,,,,3h[4:1],,,,4,,
{16}2b,1b,3b,8b,2b-5[8:1],,2,,8-4[8:1],,8,,3,,3,,
{16}7b,8b,6b,1b,7b-4[8:1],,7,,1-5[8:1],,1,,6,,6,,
{16}2b,1b,3b,4b,2bv5[8:1],,2,,4-8[8:1],,4,,3,,3,,
{16}7b,8b,6b,5b,7bv4[8:1],,7,,5-1[8:1],,5,,6,,6,,
{16}4b,5,3,6,3b,5,4,6,,,2b/7b,,,,1b/8b,,
{4},3bV15[2:5]/6bV84[2:5],,,
E
