&title=Helios
&artist=Rin
&first=0.16
&lv_5=14+
&des_5=猫车
&inote_5=
(188){4},{8},,,,,,4h[8:3],
5h[8:3],,,3h[8:3],5h[8:3],,,2h[8:3],
5h[8:3],{16},,,,1-5[8:1],8,{8}7-4[8:1],1,7,
A3h[8:3],D5h[8:3],,,E4h[8:3],E6h[8:3],,,B4h[8:3],
B7h[8:3],,,2,8,{16}4,5,{8}3,
5h[8:3],4h[8:3],,,6h[8:3],4h[8:3],,,7h[8:3],
4h[8:3],{16},,,,8-4[8:1],1,{8}2-5[8:1],8,2,
A6h[8:3],D5h[8:3],,,E6h[8:3],E4h[8:3],,,B5h[8:3],
B2h[8:3],,,7,1,{16}5,4,{8}6,
{4}C,{8}4/E6h[8:1],3,{4}2/E7h[8:1],{8}4/E8h[8:1],3,
{4}2/E6h[8:1],{8}2/E7h[8:1],2,{16}E8h[8:1]/1-5[8:1],2,{8}3-8[8:1],1,3,
,,5/E4h[8:1],7,{4}6/E3h[8:1],{8}5/E2h[8:1],7,
{4}6/E4h[8:1],{8}6/E3h[8:1],7,{16}E2h[8:1]/6-1[8:1],7,{8}8-4[8:1],6,8,
,,4/E6h[8:1],3,{4}2/E7h[8:1],{8}4/E8h[8:1],3,
{4}2/E6h[8:1],{8}2/E7h[8:1],2,{16}E8h[8:1]/1-5[8:1],2,{8}3-8[8:1],1,3,
7-4[8:1],4,7,2-5[8:1],5,2,8,1,
{16}4,5,4,5,3,6,2,7,{24}1,8,1,8,1,8,1,8,1,8,1,8,
{4}2-4[8:1],{8}2/4,5,{4}6/2-5[8:1],{8}2/5,6,
{4}7/2-6[8:1],{8}2/6,5,{16}8-4[8:1],1,{8}2-6[8:1],8,2,
{4}7-4[8:1],{8}7/3,1,{4}5/2-5[8:1],{8}2/6,8,
{4}4/7-4[8:1],{8}7/3,2,{16}1,8,{8}1,2/7,3/6,
{4}7-5[8:1],{8}7/5,4,{4}3/7-4[8:1],{8}7/4,3,
{4}2/7-3[8:1],{8}7/3,4,{16}1-5[8:1],8,{8}7-3[8:1],1,7,
4>1[8:1],5,6,7<4[8:1],8,1,2,3,
4/5,4/5,3/6,2/7,1/8,{16}1/8,2/7,{4}3/6,
{8}3/5h[8:1],1,2/4h[8:1],3,6/5h[8:1],8,7/4h[8:1],6,
3/5h[8:1],1,2/4h[8:1],3,6/5h[8:1],6,7/4h[8:1],7,
3/5h[8:1],1,2/4h[8:1],3,6/5h[8:1],8,7/4h[8:1],6,
3/5h[8:1],1,2/4h[8:1],3,{16}5x/E1h[8:1],6,{8}7,{16}2x/Ch[8:1],3,{8}4,
6/4h[8:1],8,7/5h[8:1],6,3/4h[8:1],1,2/5h[8:1],3,
6/4h[8:1],8,7/5h[8:1],6,3/4h[8:1],3,2/5h[8:1],2,
1/8,{16}2,4,{8}3,1/8,{16}7,5,{8}6,4/5,3/6,
{16}1,8,1,6,2,7,3,8,4,5,6,7,8/4,1/5,2/6,3/7,
{4}4/8-4[8:1],{8}4,2-5-1[4:1],,8,7,6-3[8:1],
,2-7[8:1],,5-1[8:1],,1,2,3-6[8:1],
,7-2[8:1],,4-8[8:1],,8,7,6-3[8:1],
,6-1[8:1]/2-5[8:1],,6/2,,4/8,3/7,2/6,
{4}5/1-5[8:1],{8}5,7-4-8[4:1],,1,2,3-6[8:1],
,7-2[8:1],,4-8[8:1],,8,7,6-3[8:1],
,2-7[8:1],,5-1[8:1],,1,2,3,
{16}4,8,4,8,3,7,3,7,{24}2-7[8:1],6,2,6-3b[8:1],2,6,{8}2b,6b,
{1}Cfh[4:3],
{4}6x/7h[8:1],5/7h[8:1],4/7h[8:1],3/7h[8:1],
2/7h[8:1],1/7h[8:1],{16}8-4[8:1],8,{8}7-5[8:1],8,7,
2h[8:1],3,2h[8:1],4,2h[8:1],5,2h[8:1],6,
2h[8:1],7,2h[8:1],8,E8,E2,{16}E1,C,{8}E5,
{4}3x/2h[8:1],4/2h[8:1],5/2h[8:1],6/2h[8:1],
7/2h[8:1],8/2h[8:1],{16}1-5[8:1],1,{8}2-4[8:1],1,2,
7h[8:1],6,7h[8:1],5,7h[8:1],4,7h[8:1],3,
7h[8:1],2,7h[8:1],1,8b/7b,8b/7b,,,4/5,
4/5,3/4,3/4,4/5,4/5,5/6,5/6,
4/5,4/5,2/4-8[8:1],4/2-6[8:1],{16},,,,,,,,2-5[8:1],
4,{8}3,5/2,{16}6,4,7-4[8:1],8,{8}6,4/7,{16}3,5,
2-5[8:1],1,{8}3,5/2,{16}7,2,{8}1>4[8:1]/6<1[8:1],6/1,{16},,,,5,
6,5,6,1,8,1,8,3,4,3,4,1,8,1,8,
2,4,3,5,4,6,5,7,1b-5b[8:1],8,{8}1b,{16},,,,7,
5,6,6,2,8,1,7,2,4,3,3,7,8,1,2,
{24}4,5,3,6,2,7,1s5b[4:1],8z4[24:5],1,8,1,8,,,,,,,,,,,,,{1}Cf/E3/E2/E1/B8/B7/B6/E7/E6/E5/B4/E4/B3/B2/B1/B5/E8,
,,,D3h[1:1]/E3h[1:1],
D7h[1:1]/E7h[1:1],
{16}4,5,4,5,3,6,3,6,2,7,2,7,1,8,1,8,
{8}2-7[8:1]/7-2[8:1],2/7,,,3-6[8:1]/6-3[8:1],3/6,,,1-4[8:1],
7-4[8:1],1-6[8:1],7,1-4[8:1],5-8[8:1],1-6[8:1],5,
1-4[8:1],7-2[8:1],1,7,{16}1-4-7b[16:3],8,{8}7,{4}1,
{8}8-5[8:1],2-5[8:1],8-3[8:1],2,8-5[8:1],4-1[8:1],8-3[8:1],4,
8-5[8:1],2-7[8:1],8,2,{16}8-5-2b[16:3],1,{8}2,{4}8,
{8}1-4[8:1],7-4[8:1],1-6[8:1],7,1-4[8:1],5-8[8:1],1-6[8:1],5,
1-4[8:1],7-3[8:1],1,7,{16}2-6[8:1],1,{8}8,,,{4}4b/8b,
{16}3,4,{8}5b/1b,{16},,6,5,{4}8b/4b,
{16}7,3,6,2,5,1,4,8,5/1,6/2,7/3,8/4,1,2,3,4,
{8}5/1h[2:1],5,{16}6,7,{8}8,6,6/1,{16}2/7,8,{8}1/3h[8:5],
7,7,{16}8,1,{8}2,1,1/4,8/5,8h[4:3],
4,4,{16}3,2,{8}1,3,3,{16}7/2,1,{8}8/7h[8:1],
2,2/6h[8:1],{16}1,8,{8}7/5h[8:1],8,8/4,{16}1/4,5,{8}6/1h[8:5],
5,5,{16}6,7,{8}8,8,{16}1/7,2,{8}3/8,3/8h[8:1],
4,4/5,{16}3/6h[4:1],2,{8}1,8,{32}1/2,3,4,5,,,,,8/7,6,5,4,
{16}2,5,1,8,4,7,1,8,3,6,4,5,1,8,2,7,
{8}6b/5b,8b/4b,,,3b/4b,1b/5b,,,1b/E5h[8:1],
2,3,4/E1h[8:1],5,6,7/E3h[8:1],8,
1b,2/E7h[8:1],3,4,{16}5,5,{8}5,6/4,7/3,
8b/E5h[8:1],7,6,5/E1h[8:1],4,3,2/E7h[8:1],1,
8b,7/E3h[8:1],6,5,4/3,{16}2,2,1/8,7,{8}6,
1b>4[8:1],1,4,6b<1[8:1],6,1,3b<6[8:1],3,
6,8b>3[8:1],8,{16}3,4,5,6,7,8,1,2,3,4,
{8}7b/5b,{16}6,6,{8}6,2b/4b,{16}3q6[4:9],3q6[16:35]*q6[16:35],{8}3q6b[8:17],{4}Ch[4:9],
E
