&title=Fly far bounce
&artist=猫叉Master
&first=0
&des=Dororo
&lv_6=13+
&inote_6=(163)
{16},,,,,,,,,,,,4,5,3,4,
{16}2h[8:3],,,,,,8h[2:1],,,,,,,,2h[8:3],,
{16},,,,5,,7h[8:3],,,,,,8,7,1,8,
{16}2h[8:3],,,,,,4h[8:3],,,,6,,6z2[2:1],,,,
{16},,,,,,,,,,,,5,4,6,5,
{16}7h[8:3],,,,1,,1h[2:1],,,,,,7,,7h[8:3],,
{16},,,,4-8[8:1],,2h[8:3],,,,,,1,2,8,1,
{16}7h[4:1],,5,,4,,6h[4:1],,{24}2,3,4,{16}5,,4b/7b,,,,
{16},,,,,,,,5-8[8:1],,,,3,,,,
{16}1/2^5[8:1],,,,8-4[8:1],,7,,,,3,,2^7[8:1],,1,,
{16},,5,,6p1[8:1]/4-1[8:1],,73,,,,,,8,2,7,3,
{16}6h[4:1],,4,,5,,3h[4:1],,{24}7,6,5,{16}4,,25,,,,
{16}4,,3,3,5,,4,,35,,2,,46,,7,,
{16}7^4[8:1]/8,,1-5[8:1],,7,,1,,,,6,,7-2[8:1]/3,,28,,
{16},,4,,3q8[8:1]/5^8[8:1],,26,,,,,,1,7,2,6,
{16}4b,,{24}3,27,16,{16}5,,8b,,{24}1,25,36,{16}7,,4b>6[2:1],,,,
{16}5,,,,5,,,,5w1[8:1],,,,5,,,,
{16}3-8[8:1],,1,1,3,,7,,1-5[8:1],,8,8,1,,6,,
{16}4qq5[4:1],,5,5,4,,7,,6^1[8:1],,6,,4,,3,,
{16}2-4[8:1],,8,,2-5[8:1],,7,,2-6[8:1],,8,8,2,,1,,
{16}15,,8,4,6,,1,5,3V17[16:3],,12,,3b/8b,,,,
{16}6-1[8:1],,8,8,6,,2,,8-4[8:1],,1,1,8,,3,,
{16}5qq4[16:3],,4,4^7[8:1],5,,1,,8v3[8:1],,8v5[8:1],,8,,,,
{16}1-4[8:1],,2,,6-1[8:1],,7,,3-6[8:1],,2,2,8-4[8:1],,7,,
{16}3<1[4:1],,2,,1bs5[4:1],,,,5b,,,,,,,,
{16}46,,5,,6,,4,5,6,,5,,6,,5,,
{16}46,,5,,6,,5,,36,,4,,6,,4,,
{16}56,,5,,64,,4,,56,,5,,46,,4,,
{16}36,,4,,6,,4,,6b-3[8:1]/3,,,,5b/6b,,,,
{16}53,,4,,3,,5,4,3,,4,,3,,4,,
{16}53,,4,,3,,4,,63,,5,,3,,5,,
{16}63,,6,,73,,7,,83,,8,,13,,{24}1,8,7,
{16}6b-4[8:1],,,,3b-6[8:1]/6,,,,7b-3[8:1]/3,,,,7/8b,,,,
{16}1^4[8:1]/4h[4:1],,,,,,6,7,8p4[8:1]/5p1[8:1],,4^7[8:1],,58,,,,
{16}2-5[8:1],,8-2[8:1],,2-6[8:1],,8,,4^2[8:1],,3,,7^5[8:1],,6,,
{16}1-6[8:1],,,,4V63[4:1],,4,,3-7[8:1],,2,,1^4[8:1],,8p5[8:3],,
{16},,,,,,,,3b-7[8:1]*-6[8:1],,,,3b,,,,
{16}58,,47,,3/6-8[8:1],,{24}2v5[8:1],3,4,{16}6-1[8:1],,2,,6,,4,,
{16}3/8^6[8:1],,3,,2/8^3[8:1],,2,,48,,4h[4:1],,{24}5-1[8:1],6,7,{16}8,,
{16},,,,2-5[8:1]/8,,37,,8-3[8:1],,8,,4-8[8:1],,4,,
{16}5b^2[8:1],,,,6b^8[8:1]/5b^8[8:1],,,,6bpp4[8:3],,,,4b,,,,
{16}2h[4:1],,,,,,2h[4:1],,,,,,2,,2,3,
{16}6h[4:1]/4,,,,,,6h[4:1],,,,,,6,,6,5,
{16}3h[4:1]/4,,,,,,3h[4:1],,,,,,3q8[4:1],,,,
{16}5h[4:1],,,,,,5h[4:1],,,,,,5,1,6,2,
{16}7h[4:1],,,,1-4[8:1],,7h[4:1],,,,,,7,,7,6,
{16}3h[4:1]/5,,,,4-7[8:1],,3h[4:1],,,,,,3,,3,4,
{16}6h[4:1]/5,,,,7-2[8:1],,6h[4:1],,,,,,6>8[4:1],,,,
{16}4h[4:1],,,,,,4qq2[16:3]*pp6[16:3],,,,,,,,,,
{16}1/7-3[8:1],,2p4[16:3]/6,,3,,,,,,{24}8-2[8:1]*-3[8:1],7,6,{16}5,,,,
{16},,{24}4-1[8:1],5,6,{16}7h[4:1],,,,,,2,8,3,7,4,6,
{16}5-1[8:1],,7-4[8:1],,5,,7,,{24}8pp5[2:1],1,2,{16}3qq6[8:3],,,,,,
{16},,,,,,{24}4,3,2,{16}1-5[8:1]/7,,26,,8b,,8,7,
{16}6V48[4:1],,4,,68,,2V48[4:1],,,,62,,5,,4-8[8:1],,
{16},,1>7[4:1]/4,,2,,3h[4:1],,,,,,3,8,2,7,
{16}1b,,{24}6,5,4,{16}2,,8b/1,,{24}3,4,5,{16}7,,1h[4:1]/6b,,,,
{16}4,2,5,3,6,4,7,5,{24}8,1,2,3,4,5,{24}1,2,3,4,5,6,
{16}8,1,7,8,7,7,4,5,3,4,3,3,8,2,8,2,
{16}6,4,7,1,5,3,8,2,{12}7,7,7,{24}5b/6b,4,3,1,8,7,
{16}6p1[8:1]/4,,2^5[8:1]/8,,4,,,,{24}8qq4[2:1],7,6,4,3,2,{16}1bpp1[4:1]/8b,,,,
{16},,,,,,2,5,3,7,4,6,3,5,4,6,
{16}2-5[8:1],,4,4,2,,1v4[8:1],,3,3,1,,8v5[8:1],,6,6,
{16}8,,7-4[8:1],,5,5,7,,3,,3,,(161){32}2b/6b,3,4,5,6,7,8,1,
(157){16}24,,46,,(146){16}68,,28,,
(123){24}7<1[3:1],1,5,3,,,(91){16}1bpp4[384:268]/7bqq4[384:268],,,,
(163)
{16},,,,,,,,,,,,,,,,
{16},,,,,,,,2q6[8:1],,,,4b>6[1:2]/2qq5[1:3],,,,
{16},,,,,,,,,,,,,,,,
{16},,,,,,,,,,,,,,,,
{16},,,,,,,,,,,,,,,,
{16},,,,,,,,,,,,,,,,
{16}6,5,4,5,4q4[4:5],3q5[16:19],,,,,,,,,,,
{16},,,,,,,,,,,,,,,,
E
