&title=AOKU
&artist=Parang
&first=0.41
&des=天兔守捲 x 天兔麻糬
&lv_5=14
&inote_1=
&inote_5=(171)
{4}4w8[4:6],4h[8:1],4h[8:1],4h[8:1],4h[8:1],4h[8:1],4,,
{16}1b/8b,,,,36,,4,4,5p5[4:1],5,4,,5,,C,,
1,,2,,36,,5,5,4q4[4:1],4,5,,4,,C,,
{8}6,6-8-2[8:1],5,6/3-7[8:1],4,3/5,6,5>4-8<6-2<8[114#6:2],
,,E6/B5/E5/Cf,,,,,,
{8}7,1,1>4[8:1],1,1<6[8:1],1,1,1,
{8}1-4[8:1],1-6[8:1],1,1,,5,4,3,
{8}12,8,76,5,4-6-1[4:2]/3,,2,2-5[8:1],
{8},,,,7v6[8:1]/2,7/2v3[342#4:1],,,
{8}2,8,8<5[8:1],8,8>3[8:1],8,8,8,
{8}8-5[8:1],8-3[8:1],8,8,,E5/B4/E4,,{16}5,6,
{8}8,1,24,5,2-5[8:1],8-5[8:1],2,8,
{16}1-3[8:1],1,8-4[8:1],,8,,7-5[8:1],7,1,,1,,8,,7,,
{8},,1-5[8:1],8-4[8:1],1-3[8:1],8-6[8:1],,,
{8},,1>4[8:1],8<5[8:1],1-4[8:1],8-5[8:1],,,
{8},,1-6[8:1],8-3[8:1],1-5[8:1],8-4[8:1],,,
{8},E7,,E3,,5,5,8,
8q5[8:2],,5<8[8:2],,8-4[8:2],,4>1[8:2],,
1p4[8:2],,A1/4>1[8:2]`4<1[8:2],,,,,,
Ch[8:7],,1,1p4q1[4:1],,,,,
,45,45,45,,,D1,,
1b-5[8:1]/7b,,1/7,,2-7-5[4:1],3v5-1[4:1],4,3,
,,5<8[8:1],,5/1>4[8:1],2,1/5-1[8:1],6,
,,2-8-4-2[4:1],,5,6,7,8-2-7-3-6-4[8:4],
,A2,A7,A3,A6,A4,,,
{32}1-3[16:1],8x-4[16:1],7x,6x,,,,,{8}1/8,,1-3-5[4:1],8-5-2[4:1],7,8,
,,1-5[16:1],,1>4[16:1],6<4[4:5],1,6,,,2x-5[8:1],2x,,,7x-5-2[4:1],7x,
,,,,4,3,2,1,
{8}8,8-6[8:1],,1,1-5[8:1],,2-4[8:1],2h[8:7],,
,8x,,8,7,6,5,
1-3[8:1],1,,8-4[8:1],8,,7-5[16:1],7h[8:9],
,A2,E3,B3,C,B6,E7,,
,,17,,28,,28,3,
1-7-5[8:1]/7,2,1v4[8:1],2,1,B1,C,B4,
{16}3,,12,,12,,4,4,2,,12,,34,,12,,
4h[16:1],,2,2,1h[16:1],,3,3,12,,34,,7b,,7b,,
4,,2,,2,,3,3,1,,12,,{32}4h,3,2,,4x,,,,
1h,2,3,,1x,,,,4h,3,2,,4x,,,,4<8[16:1],3,2,,4x,,,,{8}4b,,
{16}4,,13,,12,,4,4,2,,13,,3,3,4,,
2,1,3,4,2,1,3,4,1<7[16:1],,1<5[16:1]/2,,1x`A7,,1x`A5,,
4x,,23,,23,,{32}1,B1,C,B6,{16}2,,34,,12,,2,2,
{8}4h[16:1],4,3-1-6[4:1],,6-8-3[4:1],,3>6[4:4],,
B5/E5f/B4,,B3,B2,B1,B8,B7,B6,
,1-4[8:1]/3,2,1-6[8:1]/7,8,1/3,2,,
3b/7b,1bh[8:1]/2bh[8:1],,3b/7b,,,2xb/6xb,8xbh[8:1]/7xbh[8:1],
,2xb/6xb,,,5pp5[8:1]`4qq4[8:1],,,,
1x/8x,2-5[8:1],1,2,,7-4[8:1],8,7,
,3q7[8:1],2,3,,7xp3>8[8:4],6,3>5[2:1],
,5>5[85.5#8:5],4,4,3,2,
1,1,B8,B7,B6,B5,B4,B3,B2,B1/Ch[8:3],
,,,,1xb/Cf,3xb/Cf,5xb/Cf,7xb/Cf,
,,5>2[8:1],,6p2[8:1],,7v2[8:1],,
{1}7b>5[4:6]/Cf,,
{8}1<7[8:1],7-3[8:1],3>1-5[4:1],E7,,C,,E3,
,,8-6-4-6-8[4:1],1v3[8:1],,,,,
{16}1h[16:5],,,,8,,2,3,4h[4:1],,,,8,,3,,
2,,1,,3h[8:1]/8,,,4,4h[8:1],,,,8/5,4,3,2,
1h[8:1],,,2,1h[8:1]/8,,,2,3h[8:1],,,,4/8,,5,,
5,6,4,7,5,6,3,8,5v4[8:1],6v7[8:1],2,1,,,,,
{24}1>4[8:1],,,8,7,6,1-5[8:1],,,1,8,7,6/1-4[8:1],,,1,8,7,6/1,,,1,8,7,
{16}1,6,1,6,2-6-4-1[4:1],5,3,4h[16:3],,,,,B4/E5/B5,,6,6,
2-5[16:1],6,8-5[16:1],6,2,,8,,3,4,2,4,1,4,8,4,
8h[8:1],,{32}15,26,37,48,{16}1x-7[8:1],1x,1x-5[8:1],1x,1x-3[8:1],,,,,,,,
{24}12,,,12,,,1,2,3,4,5,6,78,,,78,,,8,7,6,5,4,3,
2,1x,2,1x,2,1x,{32}2,1,8,7,2,1,8,7,{16}6>2[6:1]/2,,,,{24}2,1,8,7x,6x,5x,
{16}4x/1x,2x,3x,4x,52,3,4,5,63,4,5,6,74,5,6,7,
8z4[42.75#16:3],,,,{24}8,7,8,7,8,7,{32}8,1,2,3,4,5,6,7,8,1,2,3,4,5,6,7,
{8}8`E1,B1,B2,B6,B5,E5,D1,,
{1}1b/8b,,,,
{4},4,,4,,4,,{8}4,4>2[8:1],
,,4,4>8[8:1],,,4,4>6[8:1],,5-1[8:1],5,,4,3,2,1,
{8}8,8-6[8:1],,1,1-5[8:1],,2-4[8:1],2h[8:7],,
,8x,,8,7,6,5,
1-3[8:1],1,,8-4[8:1],8,,7-5[16:1],7h[8:9]/2xz6[4:3],
,A2,E3,B3,C,B7,E7,,
,,17,,28,,28,3,
1v4[8:1]/7,2,1-7-5[8:1],2,1,,{64}A1,B1,Cf,B4,A4,,,,,,,,,,,,
{16}8/1,,,,63,,5,5,4q4[4:1],4,5,,4,,C,,
8,,7,,63,,4,4,5p5[4:1],5,4,,5,,C,,
{8},1,8-6-4[8:5],1,8,2,1v3[8:1],2,
1,,2/1,1/8-6-4[4:1],2/1v3[8:1],1/8,,,
{16}1/8,,,,36,,4,4,5p5[4:1],5,4,,5,,C,,
1,,2,,36,,5,5,4q4[4:1],4,5,,4,,C,,
{8}7,7-5-3[8:1],,7b/2b-6[8:1],,2b/8bw4[8:1],,8b,
