&title=ぱぴぷぴぷぴぱ
&artist=立秋 feat. ころねぽち
&first=0
&des=Holinality
&clock_count=4
&lv_5=13+
&inote_5=(200)
{4}
,,,,,,,,
{16}
,,,,,,,,
1x,,1x,,1x,,1x,,
1x/7-3[8:1],,,,7/2-5[8:1],,,,
8-4[8:1]/2,,,,3-6[8:1]/8,,,,
7-2[8:1]/3,,,,1-4[8:1]/7,,,,
5-8[8:1]/1,,,,2-4[8:1]/5,,2,,
6-1[8:1]/2,,,,2-5[8:1]/6,,,,
8-4[8:1]/2,,,,1w5[8:1]/8,,,,
1b,,,,,,,,
3h[4:1]/6h[4:1],,,,,,,,
{16}
2/4,,3,,4/6,,5,,
2/4,,3,5,4,,4,,
7,,6,,5/3,,4,,
7/5,,6,4,5,,5,,
2,,3,,4/6,,5,5,
3,,3,,2/4,,3,,
5-1[8:1],,,,3-7[8:1]/5,,,,
3/8w4[8:1],,,,8b,C,,,
{16}
A2/E2/E3/B2,,,,,,5,,
3,,6,,4,,7h[4:1],,
,,1,,1,,,,
8,,1,,7,,2,,
A6/E6/E7/B6,,,,,,4-2[8:1],,
5-1[8:1],,4,,5,,4,,
,,8-6[8:1],,1-5[8:1],,8,,
1,,,,8,,8,,
A3/E4/E3/B3,,,,,,8,,
8-4[8:1],,2-5[8:1],,8,,2,,
,,6,,2-4[8:1],,,,
2-8[8:1],,5,,2,,5,,
,,7-3[4:1],,,,7/3-5-7[4:1],,
2,,2,,2,,2,,
,,7,,2,,6,,
2-4[8:1],,6-8[8:1],,2,,6,,
{16}
1,,1,,7,,7,,
2-5[8:1],,5-3-1[4:1],,2,,6,,
,,7,,7,,1,,
6-8[8:1],,1-5[8:1],,6,,1,,
6,,4,,6h[4:1],,,,
1,,2,,3h[8:3],,1,,
,,5h[8:3],,8,,,,
3h[8:1],,8,,6/3,,,,
7-4[8:1],,4-6-1[4:1],,7,,3,,
,,2>5[8:1],,8,,2,,
,,7<4[8:1],,3,,7,,
3,,3,,5,,5h[4:1],,
,,1,,1h[2:1],,,,
3,,3,,8,,8h[4:1],,
2,,2,,6x-8[8:1]/3x-1[8:1],,8x-4[8:1]/1x-5[8:1],,
6x/3x,,,,,,,,
{16}
2qq4[16:18],,7pp5[16:16],,2,,7,,
,,,,,,,,
,,,,,,,,
,,4,,6,,2,,
7pp4[8:11],,2qq5[4:5],,7,,2,,
,,,,,,,,
,,,,,,,,
,,,,,,,,
2/4,,4,3,4,,2,,
3/5,,5,4,5,,3,,
7/5,,5,6,5,,7,,
6/4,,4,5,4,,6,,
2,,2,,8,,8,,
1,8,2,7,3,6,4,5,
4,,5,,4/6,,4,,
3/5,,,,4,,6,,
{16}
3-8[8:1]/7-4[8:1],,,,3/7,,,,
6-1[8:1]/2-5[8:1],,,,2/6,,,,
7-5[8:1]/3-1[8:1],,,,7-1[8:1]/3-5[8:1],,,,
7-3[8:1]/3,,,,7,,2,,
1-3[8:1]/5-7[8:1],,,,1/5,,,,
2-5[8:1]/7-4[8:1],,,,2/7,,,,
8-4[8:1],,3,,8-6[8:1],,3,,
8-4[8:1],,3,,8,,3,,
2-5[8:1]/6-1[8:1],,,,2/6,,,,
7-4[8:1]/3-8[8:1],,,,7/3,,,,
2-4[8:1]/6-8[8:1],,,,2-8[8:1]/6-4[8:1],,,,
2-6[8:1]/6,,,,2,,7,,
8-5[8:1],,,,8-3[8:1]/2,,,,
8-5[8:1]/6,,,,8w4[8:1]/2,,,,
8,,,,,,,,
{32}
1x,2x,3x,4x,5x,6x,7x,8x,
1xs5b[8:2],2x,3x,4x,5x,6x,7x,8x,
{16}
1bx,,,,,,6-3[8:1],,
2-7[8:1],,6,,2-4[8:1],,6,,
2,,7,,1-5[8:1],,7,,
1-3[8:1],,,8,1,,7,,
2/5,,4/7,,2/5,,4/7,,
3/8,,,1,2-5-3-8b[2:1],,8,,
2b,,,,,,,,
7b,,7b,,7b,,7b,,
{32}
7b,E7,B6,B5,E5,,,,,,,,
{16}
1-5[8:1],,
6,,1-7<6b[8:1],,6,,1-3<4b[8:1],,
5,,1,,5,,1,,
{32}
7,,,8,,,6,,
2,,,1,,,3,,
{16}
7,,7/1,,1,,2/8,,
1,,,8,2-6-4-8-2[4:3],,7,,
2,,,,,,,,
7h[4:1],,,,,,,,
{16}
2/4,,3,,4/6,,5,,
2/4,,3,5,4,,4,,
7,,6,,5/3,,4,,
7/5,,6,4,5,,5,,
2,,5,5,3,,6,6,
3,,3/5,,4,,5,,
3h[4:1]/5,,,,,,,,
{32}
6,,,5,,,7,,
3,,,4,,,2,,
8,,,,8,,,,
2,,,,2,,,,
7,,,,7,,,,
1,,,,1,,8,,
1,,,,1,,,,
7,,,,7,,1,,
7,,,,7,,,,
1,,,,1,,8,,
1,,8,,2,,7,,
3,,,,6,,,,
4,,6,,3,,5,,
4,,5,,4,,,,
3/6,,,,,,,,
,,,,,,,,
{16}
Cf,,,,,,,,
,,,,,,,,
,,,,,,,,
6xh[4:2],,,,B1,,,,
B2,,,,B3,,,,
6xh[4:2],,,,E1,,,,
E2,,,,E3,,E4,,
5xh[4:2],,,,B1,,,,
B2,,,,B3,,,,
5xh[4:2],,,,A1,,,,
A2,,,,A3,,,,
4x/A8,,,,A7,,,,
4x/A6,,,,A5,,,,
3x/E1,,,,E8,,,,
3x/E7,,,,E6,,E5,,
4x,,,,A8,,E8,,
4x/E7,,,,E6,,,,
4x>1[2:1]/5x<8[2:1],,,,,,,,
,,,,,,,,
1bx,,1b,,1b,,1b,,
1bx,,1bx,,1bxw5b[4:3],,1bx,,
1bx,,,,,,,,
,,,,,,,,
{32}
8bx/4h[4:1],7x,6x,5x,,3x,2x,1x,
{16}
8x,,3,,
7-2[8:1],,3,,7-5[8:1],,3,,
7,,2,,8-4[8:1],,2,,
8-6[8:1],,,1,8,,2,,
7/4,,5/2,,7/4,,5/2,,
6/1,,,8,7-4-6-1b[2:1],,1,,
7b,,,,,,,,
2b,,2b,,2b,,2b,,
{32}
2b,E3,B3,B4,E5,,,,,,,,
{16}
8-4[8:1],,
3,,8-2>3b[8:1],,3,,8-6>5b[8:1],,
4,,8,,4,,8,,
4-2[8:1],,8-6[8:1],,4,,8,,
1,,2/8,,8,,7/1,,
8,,,1,7-3-5-1-7b[4:3],,2,,
7b,,,,,,,,
2hb[4:1],,,,,,,,
{16}
6-1[8:1]/2-5[8:1],,,,6/2,,,,
3-8[8:1]/7-4[8:1],,,,7/3,,,,
2^4[8:1]/6^8[8:1],,,,2^8[8:1]/6^4[8:1],,,,
2-6[8:1]/6,,,,2,,,,
8-6[8:1]/4-2[8:1],,,,8/4,,,,
7-4[8:1]/2-5[8:1],,,,7/2,,,,
1-5[8:1],,6,,1-3[8:1],,6,,
1-5[8:1],,6,,1,,6,,
7-4[8:1]/3-8[8:1],,,,7/3,,,,
2-5[8:1]/6-1[8:1],,,,2/6,,,,
7^5[8:1]/3^1[8:1],,,,7^1[8:1]/3^5[8:1],,,,
7-3[8:1]/3,,,,7,,,,
1-6[8:1],,,,1-4[8:1]/7,,,,
1-5[8:1]/3,,,,1w5[8:1]/7,,,,
1,,,,,,,,
{16}
4,5,3,6,2,7,1,8,
{16}
1^4[8:1],,8,,1,,7,6,
5-8[8:1],,4/6,,5,,3,2,
1,,7,,3,1,,6,
8<5[4:1],,1,,8,1,2,3,
4,,7<5[8:1],,8,,7/4,3,
2,,7<5[8:1],,8,,7/1,2,
3,,4,6,4,,6,4,
5,3,4,2,5,3,6,4,
5,,4,,6,5,,3,
4,,6,5,8,,3,4,
1-5[8:1],8,2,7,1,,,,
{32}
7,,,7,,,7,,
2,,,2,,,2,,
{16}
7,,7,8,6,,2,1,
3,8,,2-6[8:1],8,2,8,2,
8h[8:1],,,,7h[8:1],,,,
6h[8:1]/4h[8:1],,,,5h[8:1]/3h[8:1],,,,
{16}
2/4,,3,,4b/6,,5,,
2/4,,3,5,4b,,4,,
7,,6,,5b/3,,4,,
7/5,,6,4,5b,,5,,
2/4,,3,,4b/6,,5,,
2/4,,3,,4b,,4,,
5/3,,4,,6b,,7/5,,
6x,4x,5x,3x,5bx,,3x,,
2/4,,3,,4/6b,,5,,
2/4,,3,5,4b,,4,,
7,,6,,5/3b,,4,,
7/5,,6,4,5b,,5,,
2,,3,,4/6b,,5,5,
3,,3,,6bx,4x,5x,3x,
6x/4x,,,,8xb/2xb,,7x/1x,,
8bxw4b[8:1],,,,8b,Cf,,,
