&title=You Can't Escape, You Know
&artist=Kelly Bailey
&first=0.02
&des=GlaDos
&lv_5=14
&inote_5=(480)
{2},,,,
{8}26,3,4,5,6,7,8,1,26,3,4,5,6,7,8,1,26,3,4,5,6,7,8,1,
{4}26,6,4h[4:2],,
5,3,6,2,7,7,1-5[8:1],,
6,7h[4:6],,5,,1,,2,
2-5[8:1],,7-2[8:1],,3,3,1-5[8:1],,
3,4,2,2,4,3,8,8,
2>5[8:1],,1<6[8:1],,2>5b[8:1],,1<6b[8:1],,
3,2h[4:6],,4,,8,,7,
7,4,6,3,5,5,2-5[8:1],,
7,4,6,3,5,5,1,1,
6,5,7,1,4,3,7-4[8:1],,
3,2h[4:6],,1,,5,,6,
6>3[8:1],,2,2-4-1-5[16:10],,,,,
78,,7-5[8:1]/8-2[8:1],,3,4,2,
8x<5[16:3],,3x>8[16:3],,6x>3[16:3],,1x,,3x/7x,4x,5x/1x,6x,7x/3x,8x,1x/5x,,,
{8}73,6,5,4,3,2,1,8,73,6,5,4,3,2,1,8,73,6,5,4,3,2,1,8,
{4}73,3,5h[4:2],,
4,6,3,7,2,2,8-4[8:1],,
3,2h[4:6],,4,,8,,7,
7v6[8:1],,1v2[8:1],,8-4[8:1],,2,2h[4:2],,4,3,1,5,6,8,,
71,,35,,6,2,6,
1x>4[16:3],,6x<1[16:3],,3x<6[16:3],,8x,8x,,
{8}37,2,1,8,7,6,5,4,37,2,1,8,7,6,5,4,37,2,1,8,7,6,5,4,
{4}37,7,1h[4:2],,
5,5,4,4,6,6,5,5,
7h[4:1],,3h[4:1]/4h[4:1],,2h[4:1],,5h[4:1]/6h[4:1],,
8h[4:2],,2-6[8:1],,7,7,85,,8-3[8:1]/5,,5-2[8:1],,7-4[8:1],,1-6[8:1],,
4,4,8,8,6,2,6,2,
5,3h[4:6],,2,,5,,8,
8h[4:2],,1h[4:2],,A2,E3,E4,A4,1h[4:2],,8h[4:2],,A7,E7,E6,A5,
8h[4:2],,2h[4:2],,7h[4:2],,,
3x<6[16:3],,7x<4[16:3],,3x<6[16:3],,8x,8x,,
{2}8x-6>5b[8:1],8x-2>3b[8:1],8x<7-5b[8:1],8x>1-3b[8:1],8x-6>5b[8:1],8x-2>3b[8:1],8x<7-5b[8:1],8x>1-3b[8:1],
{4}6,5,7,7-5-8-4[16:10],,,,,
2,1h[4:6]/5,,3,,7,,6,
6>3[8:1],,2,2-4-1-5[16:10],,,,,
78,,7-5[8:1]/8-2[8:1],,3,4,2,2,
5,3,6,2,7,7,1-5[8:1],,
6,7h[4:6],,5,,1,,2,
2-5[8:1],,7-2[8:1],,3,3,1-5[8:1],,
3,4,2,2,4,3,8,8,
2>5[8:1],,1<6[8:1],,2>5b[8:1],,1<6b[8:1],,
3,3,46,46,7,7,1h[4:1],,
{8}7/3,6,5,4,3,2,1,8,73,6,5,4,3,2,1,8,73,6,5,4,3,2,1,8,
{4}73,3,5h[4:2],,
4,6,3,7,2,2,8-4[8:1],,
3,2h[4:6],,4,,8,,7,
7-4[8:1],,2-7[8:1],,6,6,8-4[8:1],,
6,5,7,7,5,6,1,1,
7<4[8:1],,8>3[8:1],,7<4b[8:1],,8>3b[8:1],,
6,7h[4:6],,5,,1,,2,
34,,1,,5-3[8:1]/6x,,8,8,,34,1x,,5-3[8:1]/6xh[4:1],,6xh[4:1],,
7x,8x,1x,2x,3x,4x,5x,6x,
2,8,2,8,1,7,1,7,
65,,8,,4-6[8:1]/3x,,1,1,,65,8x,,4-6[8:1]/3xh[4:1],,3xh[4:1],,
2x,1x,8x,7x,6x,5x,4x,3x,
7,1,7,1,8,2,8,2,
34,,8,,5-3[8:1]/6x,,1,1,,34,8x,,5-3[8:1]/6xh[4:1],,,7x,
7x,8x,1x,2x,3x,4x,5x,6x,
7,1h[4:6],,3,,5,,7,
65,,8,,4-6[8:1]/3x,,1,1,,65,8x,,4-6[8:1]/3xh[4:1],,3xh[4:1],,
2x,1x,8x,7x,6x,5x,4x,3x,
7,1,7,1,8,2,8,2,
34,,1,,3-1[8:1]/4x,,8,,,65,
7x,8,1x/2x,3,4/5,6,7/1,,7-5[8:1]/1p5[8:1],,
3xb,2xb,1xb,,
7,7,64,64,3,3,8h[4:1],,
65,,7,,6-8[8:1]/5x,,1,,,34,
2x,1,8x/7x,6,5/4,3,2/8,,2-4[8:1]/8q4[8:1],,
6x,7x,8x,,
2,2h[4:6],,1,,4,,6,
6h[4:4],,,,5h[4:2],,7x,8,1x/2x,3,4/5,6,7/1,,7-5[8:1]/1p5[8:1],,
3x,2x,1x,,
6h[4:1]/4h[4:1],,6h[4:1]/4h[4:1],,3h[4:1]/5h[4:1],,3h[4:1]/5h[4:1],,
3,5,3,5,
4,,2/8h[4:2],,3x<4[8:1],5x<6[8:1],7x>8[8:1],1x>2[8:1],
6xh[4:2],,4xh[4:2],,B7,C,B3,,
2h[4:1],,3h[4:1]/4h[4:1],,1h[4:1],,4h[4:1]/5h[4:1],,8h[4:1],,2h[4:1]/5h[4:1],,
7h[4:1],,4h[4:1]/6h[4:1],,81,,
{2}2>5[8:1],8p3[8:1],2>5[8:1],8p3[8:1],2>5[8:1],8p3[8:1],2>5[8:1],
7<4[8:1],1q6[8:1],7<4[8:1],1q6[8:1],7<4[8:1],1q6[8:1],7b,8b,
{2}8h[4:1]/2-4[8:1],8h[4:1],8h[4:1]/1-5[8:1],8h[4:1],8h[4:1]/7-3[8:1],8h[4:1],8h[4:1]/6-4[8:1],8h[4:1],
8bh[4:2],2bh[4:2],4bh[4:2],
{4}5h[4:1],,6x-4[8:1],,3x-7[8:1],,8x-2[8:1],,5bx>2[8:1],,
8b,,8bv5[8:1]*v3[8:1],,
D2/D7,A1/A7,D1/D8,,3,4,3,4,E2,E3,E4,E5,7,7,5,5,
D8/D3,A8/A2,D1/D2,,6,5,6,5,E8,E7,E6,E5,
2-5[8:1],,7-2[8:1],,3,3,1-5[8:1],,
3,4,2,2,4,3,8,8,
2>5[8:1],,1<6[8:1],,2>5b[8:1],,1<6b[8:1],,
3,3,46,46,7,7,3h[4:1],,
{8}8/4,7,6,5,4,3,2,1,84,7,6,5,4,3,2,1,84,7,6,5,4,3,2,1,84,7,6,5q1[4:21],4,3,2,1q5[4:19],8b,
