&title=Notice
&artist=Moe Shop
&first=0.08
&des=D.N.T.
&lv_5=14
&lv_6=13
&inote_5=(125)
,,,,,
{16}4>1[2:1]/5,,,,5h[8:1],,,,7,,,7h[16:3],,,,,
{16}5<8[2:1]/4,,,,4h[8:1],,,,2,,,2h[16:3],,,,,
{16}4-1[2:1]/5,,,,5h[8:1],,,,7,,,7h[16:3],,,,,
{4}5-8[2:1]/4,4h[8:1],2-6[16:1],,
{16}4-7[2:1]/5,,,,3h[8:1],,,,1,,,1h[16:3],,,,,
{16}5-2[2:1]/4,,,,6h[8:1],,,,8,,,8h[16:3],,,,,
{16}4-8[2:1]/5,,,,3h[8:1],,,,1,,,1h[16:3],,,,,
{4}5-1[2:1]/4,6h[8:1],8-4[16:1],8,
{16}2<7[8:1],,3,,4<7[8:1],,3,,2-6[8:1],,3,3,2,,,,
{16}2,1,2,1,1,8,1,8,8>3[8:1],7,8,7,8,5,,,
{16}7>2[8:1],,6,,5>2[8:1],,6,,7-3[8:1],,6,6,7,,,,
{16}7,8,7,8,8,1,8,1,1<6[8:1],2,1,2,1-5[8:1],,3,,
{16}4<7[8:1],,,,8<5[8:1],1,2,3,4-8[8:1],3,2,1,8>3[8:1],1,2,,
{16}8<5[8:1],4,4,,8,2,2,,1,3,2,4,3<6[8:1],,18,,
{16}3/7-4[8:1],,8,8,1<6[8:1]/7,2,2,3,1,,4,3,2/5,,,,
{16}7,6,7,6,1,2,1,2,,34,,78,62,,,,
{16}8-4[8:1],,4-7[8:1],,8-3[8:1],,3>8[8:1],,8-4[8:1],,6,6,7<4[8:1],,,,
{16}1,,,,2-5[8:1],3,2,8,2-7[8:1],,6-1[8:1],,2>5[8:1],,6,,
{16}2,,6,6,5-8[8:1],4,3,3,5,4-7[8:1],,1,,1,,,
{16}2,3,2,4,3,4,,56,7-4[8:1],7,4-8[8:1],,,,1,1,
{16}2>5[8:1],,,,6>3[8:1],7,8,1,2-6[8:1],,8-4[8:1],8,2,,,,
{16}3,3,6,5,7,7,4,5,8,8,6-3[8:1],7,5,,,,
{16}2-5[8:1],2,,,1>4[8:1],,7,7,1<6[8:1],,5,,1,,,,
{16}3,3,5,5,2-5[8:1],4,1,6,,7,,7,6,,8b,,
{4}1-6[8:1],8-3[8:1],2-5[8:1],7-4[8:1],
{16}7-2[8:1],,,,7,,3,3,1-5[8:1],,2,2,1>4[8:1],8,,,
{16}1,,,,6,5,6,5,4-7[8:1],3,4-1[8:1],3,4-8[8:1],,4,,
{16}4>1[8:1],,2,,4/8>3[8:1],,6,6,5-1[8:1],6,7,8,15,,,,
{16}7/6<1[8:1],,54,,6/5-1[8:1],4,3-7[8:1],2,5<8[8:1],,3,,5,,,,
{16}2-6[8:1],,,,8-5[8:1],,7<4[8:1],7,8,,7,,1<6[8:1],1,3,,
{16}1>4[8:1],5,5,,1,,8,8,5,7,5,7,1<6[8:1],1,,2,
{16}2-6[8:1],,3,,2/4-1[8:1],,5-8[8:1],,4,,5,,3>8[8:1],,2,,
{16}1/3<6[8:1],,7,,5/3>8[8:1],,7,,1-5[8:1]/3,,7,,15,,,,
{16}7>2[8:1],,6,,5>2[8:1],,6,,7-3[8:1],,6,6,7,,,,
{16}7,8,7,8,8,1,8,1,1<6[8:1],2,1,2,1,4,,,
{16}2<7[8:1],,3,,4<7[8:1],,3,,2-6[8:1],,3,3,2,,,,
{16}2,1,2,1,1,8,1,8,8>3[8:1],7,8,7,8-4[8:1],,6,,
{16}5>2[8:1],,,,1>4[8:1],8,7,6,5-1[8:1],6,7,8,1<6[8:1],8,7,,
{16}1>4[8:1],5,5,,1,7,7,,8,6,7,5,6>3[8:1],,81,,
{16}6/2-5[8:1],,1,1,8>3[8:1]/2,7,7,6,8,,5,6,7/4,,,,
{16}2,3,2,3,8,7,8,7,,65,,21,37,,,,
&inote_6=(125)
,,,,,
{16}45,,,,4h[8:1]/5h[8:1],,,,5/6-1[8:1],,,56,,,,,
{16}54,,,,5h[8:1]/4h[8:1],,,,4/3-8[8:1],,,43,,,,,
{16}45,,,,4h[8:1]/5h[8:1],,,,5/6-1[8:1],,,56,,,,,
{4}54,5h[8:1]/4h[8:1],4w8[16:1]/3,4b,
{16}45,,,,4h[8:1]/5h[8:1],,,,5/7-3[8:1],,,57,,,,,
{16}54,,,,5h[8:1]/4h[8:1],,,,4/2-6[8:1],,,42,,,,,
{16}45,,,,4h[8:1]/5h[8:1],,,,5/7-3[8:1],,,57,,,,,
{4}54,5h[8:1]/4h[8:1],4/2w6[16:1],2,
{16}4/7p3[8:1],,,,2>5[8:1]/7,,1,,2/8-4[8:1],,,8,1q5[8:1],,,,
{16}1/7-3[8:1],,,,7,,2h[4:1],,{32}1pp3[8:1],8,7,6,,,,,{4}1,
{16}6/2-5[8:1],,,,8-4[8:1]/2,,7,,8/2-6[8:1],,,2,1<6[8:1],,,,
{16}1/3p7[8:1],,,,3/5pp4[4:1],,4,,5,,,,1b,,,,
{16}5/2q6[8:1],,,,7<4[8:1]/2,,8,,7/1-5[8:1],,,1,8p4[8:1],,,,
{16}8/2-6[8:1],,,,2,,7h[4:1],,{32}8qq6[8:1],1,2,3,,,,,{4}8,
{16}3/7-4[8:1],,,,1-5[8:1]/7,,8,,1/7-3[8:1],,,7
,8>3[8:1],,,,
{16}8/6q2[8:1],,,,6/4qq5[4:1],,5,,4,,,,8b,,,,
{16}3/7-4[8:1],,,,7/1<6[8:1],,2,,1>4[8:1],,,5,1-5[8:1],,,,
{16}1/7<4[8:1],,8>3[8:1],,7,,8,,{32}7q3[8:1],6,5,4,,,,,{4}7,
{16}8-4[8:1]/4,,,,8/2q6[8:1],,1,,2/7<4[8:1],,,7,8-4[8:1],,,,
{16}8/6<1[8:1],,,,6/3qq4[4:1],,4,,3,,,,7b,,,,
{16}6/2-5[8:1],,,,2/8>3[8:1],,7,,8<5[8:1],,,4,8-4[8:1],,,,
{16}8/2>5[8:1],,1<6[8:1],,2,,1,,{32}2p6[8:1],3,4,5,,,,,{4}2,
{16}1-5[8:1]/5,,,,1/7p3[8:1],,8,,7/2>5[8:1],,,2,1-5[8:1],,,,
{16}1/3>8[8:1],,,,3/6pp5[4:1],,5,,6,,,,2bV86[4:1],,,,
{4}6V42[4:1],2qq3[4:1],6qq7[4:1],,
{16}1-5[8:1],,,,3h[8:1],,,,2-5[8:1],,6-1[8:1],6,2,,6,,
{16}3>8[8:1],,,,7h[8:1],,,,6V47[4:1],5,,,{12}1,1,1,
{16}2-5[8:1],,,,8h[8:1],,,,7-4[8:1],5,6,,7,,,,
{4}2<7[4:1],7<4[4:1],4>1[4:1],7b,
{16}8-4[8:1],,,,6h[8:1],,,,7-4[8:1],,3-8[8:1],3,7,,3,,
{16}6<1[8:1],,,,2h[8:1],,,,3V52[4:1],4,,,{12}8,8,8,
{16}7-4[8:1],,,,1h[8:1],,,,2-5[8:1],4,3,,2,,,,
{4}7>2[4:1],2>5[4:1],5<8[4:1],2b,
{16}3p7[8:1],,,,5h[8:1],,,,4-8[8:1],,2-5[8:1],2,4,,2,,
{16}7<4[8:1],,,,3h[8:1],,,,2V48[4:1],1,,,{12}6,6,6,
{16}5-1[8:1],,,,7h[8:1],,,,8<5[8:1],2,1,,8,,,,
{4}1<6[4:1],6>3[4:1],3>8[4:1],7b,
{16}6q2[8:1],,,,4h[8:1],,,,5-1[8:1],,7-4[8:1],7,5,,7,,
{16}2>5[8:1],,,,6h[8:1],,,,7V51[4:1],8,,,{12}3,3,3,
{16}4-8[8:1],,,,2h[8:1],,,,1>4[8:1],7,8,,1,,,,
{4}8-3[8:1],1-6[8:1],8-4[8:1],1h[4:1],
