&title=ヒトリゴト
&artist=ClariS/TVアニメ「エロマンガ先生」
&first=1.78
&des=MKK
&lv_5=13
&inote_5=(165)
{8}
5pp5[8:4]/4,5/4,B2,,A2,,E3,,5/4qq4[8:4],5/4,B7,,A7,,E7,,
5/4-7-2>3[8:4],5h[8:4]/4,,,,,,,6,6-8[8:1],,6,,2,2,7,
8/1v3>1b[8:4],8/1,7,,6,,8,,8v6<8b[8:4]/1,8/1,2,,3,,1,,
8-3-6<7b[8:4]/1,8/1h[8:4],,,,,,,2,2>4[8:1],,2,,6-4-8[8:3],5,6,,,
{8}
1,,2,3,4,7h[8:1],5,7h[8:1],5,6-2[8:1],3,6,,,8/4,,
2h[8:4],,7,6,5,3h[8:1],6,3h[8:1],6,4h[8:1],7,5-1b[8:1],8,B5,,,
8/2,,7,6,5,4/2h[8:1],,7h[8:1]/5,,6h[8:1]/1,,8/3v8[8:1],,,,,
B6/1h[8:3],,6,5-8[8:1],5,5x/2-7[8:1],,6/2,,D1/E1`A4,,7-5[8:1]`D3/A3,,,,,
{8}
2h[8:1],4,2h[8:1],4,2h[8:1],4,1h[8:1],5,1h[8:1],6,1h[8:1],7,1h[8:1],8,,
2,2,7,3-5[8:1],3,7-5[8:1],7,1,1-6[8:1]/1-4[8:1],,1,,B5,C,B1,,,
6h[8:1],1,6h[8:1],1,6h[8:1],1,7h[8:1],2,7h[8:1],3,7h[8:1],4,7h[8:1],5,,
7,7,4,6-3[8:1],6,2-7[8:1],2,5,5p1[8:1]/5q1[8:1],,5,,8,7,6,,,
{8}
2,,2<7[8:6],,C,B4,B3,,6,6,,,5,5,4>1[8:6],,E6,,B6,,B7,,Ch[8:3],,,,
{24}
2-4[8:1],,2,,7,,2,,,,,,C,,,,,,
{32}
5x,,,,D2/A2,D3,A3,,8x,,,,B5/B4,C,E1,,
5x,,,,D2/A2,D3,A3,,8x,,,,B5/B4,C,E1,,
5x,,,,D2/A2,D3,A3,,8x,,,,8x<6b[8:1],,,,,,,,8b,,,,,,,,,,,,
2x,,,,E2,B1,B8,,6x,,,,E6,B5,B4,,
2x,,,,E2,B1,B8,,6x,,,,E6,B5,B4,,
2x,,,,E2,B1,B8,,6x,,,,6x-2[8:1]/6x-4[8:1],,,,,,,,6b,,,,,,,,,,,,
2x,,,,E3,E4,A4,,5x,,,,B5,C,B1,,
2x,,,,E3,E4,A4,,5x,,,,B5,C,B1,,
2x,,,,E3,E4,A4,,5x,,,,5xpp8[8:3]/5xqq2[8:3],,,,,,,,
{8}
5b,,,,B1,C1,,,3,3>6[8:4],,B3,,C,,B6,,5,5w1b[8:3],,5,,,,,
{16}
6>4[8:1],,5,,2<8[8:1],,1,,6>4[8:1],,5,,2,,1,,6/2,,1,1,5,,6/2v5b[8:1],,,,2,,B8,,B7,,,,
7-5[8:1],,8,,2-4[8:1],,1,,7,,8,,7/2,,1,,8,8,1,,7v4b[8:1]/2,,,,7,,B1,,B2,,,,
{8}
3,5/2,6,7/3,4,8/3,7/2>5[8:1],,2,6,7,8w4b[8:1],,8b,,
2-7[8:2],,7-4[8:2],,4-1[8:2],,1>5qq2b[8:7],,5,6,7,8h[8:3],,,,,,
{8}
2-5[8:1],3,7-4[8:1],6,2-5[8:1],3,7,6,7<5[8:1]/2>4[8:1],8/1,7/2,,E1,B7/B2,B5/B4/E5,,
6-8[8:1],7,3-1[8:1],2,6<8[8:1],7,3>1[8:1],2,6,5,5-8[8:1],,1w5b[8:1],1,1b,,
{16}
B7/3xh,,,,6xh/B2,,7h,,8h,,1h,,2<7[8:2],,,,
2,,3,,4,,5-8b[8:1]/5-2b[8:1],,,5,5b,,,,
{8}
1x>5[8:4],,5,5,5<1[8:4],,1,1,1,,5b,,6/4,,
3-6[8:1]/3>1[8:1],2,3,,7<5[8:1]/7-2[8:1],6,7,,4-6[8:1]/4-2[8:1],4,4w8[8:1],,4,,6/2,,
7<5[8:1]/7-4[8:1]/8,6,7,,1/2v5[8:1]/2-4[8:1],3,2,,
{32}
8-4[8:1],,,,7/1,,,,8<5[8:1],,,,,,,,8>3[8:1],E8,E7,E6,,,,,8w4b[8:1],E1,E2,E3,,,,,8b,B8,C,B4,,,,,
{8}
6/2,,8-4[8:1]/1-5[8:1],7/2,8/1,,6-2[8:1]/3-7[8:1],5/4,6/3,,
D8/A8/E8/D2/A1/E2,,D6/E6/A5/D4/A4/E4,,2,2,2-6b[16:11],,,
{16}
B4,,B5,,,,,,,5b,,,,,,,,,,,,,,,,,
