&title=青い果実
&artist=D.O.A
&first=-0.095
&des=SHINIEST
&lv_5=13+
&inote_5=(186){4},,,,,,4/5,
4,
{8}3/6,,,2,{4}1,1-6[4:1]`2-5[4:1],
,,5/4,5,
{8}6/3,,,8,{4}7,8-3[4:1]`7-4[4:1],
,,2/7,4/5,
{8}7/2,,,6/3,{4}6/3,5s1[4:1]`4z8[4:1],
,,6,7,
5,{8}4/5,6,7,8,{4}1,
{8}8,8,7/4>1[4:1],6,{2}4/5,
{8}4/7h[2:1],,,4,{4}3,1<6[4:1]`2s6[4:1],
,,5/3h[4:1],7,
{8}2/7,,,1/6,{4}8/7,7s3[4:1]`8>3[4:1],
,,4>8[4:1],8V24[4:1],
,,5V71[4:1],1<5[4:1],
,,3/4,5/6,
{8}1/8h[8:3],,,1,{4}2/7,4/8p4[4:1],
{2}2,{4}3h[2:1],4,
{8}2,,,8,{4}1/7,6/1q6[4:1],
{2}2,{4}5h[2:1],4,
{8}6,,,6/3,{4}8/1,8q5[4:1]`1p4[4:1],
,,7V52[4:1],2V47[4:1],
{8},,,,4,5,3,6,
4,5,{4}4h[4:1],5-2[4:1],5<8[4:1],
{8},,,6,5,7,{4}5p1[4:1]`6v1[4:1],
,,4-1[4:1],4<7[4:1],
{8},,,2,1,3,{4}2>5[4:1]`1q5[4:1],
{2}1/2,{4}6/4h[4:1],6,
7/3h[4:1],7,3h[4:1]/8<5[2:1],8,
{2}4h[4:1],{4}3/5h[4:1],3,
2/6h[4:1],2,6h[4:1]/1>4[2:1],1,
{2}5h[2:1],{4}4,4>1[16:3],
{8},5<8[16:3],,,{4}4-1[16:3],5-8[16:3],
{8}3-6[8:1],3,,,{4}7<5[4:1],5>3[4:1],
3>8[4:1],8<5[4:1],5>1[4:1],1<5[4:1],
,,5/2-4[8:1],2/7-1[8:1],
7/5,{8}4,4,3>7[4:1],3,{4}7V51[4:1],
{2}5,{8}7-5[8:1],7,{4}2-5[8:1],
{8}6-1[8:1],6,{4}3-1[8:1],{8}7-4[8:1],7,3-6[8:1],3,
{4}5,5,8<6[8:1],4>2[8:1],
5-8[8:1],5-2[8:1],5,{8}7-5[8:1],7-1[8:1],
{4}3,3h[4:1],6<2[4:1],3>7[4:1],
,6>3[4:1],3p6[4:1],5v4[4:1],
{2}5h[2:1],{4}3-1[8:1],3/6-4[8:1],
6/3-7[8:1],3/8-2[8:1],{2}8/4p1[4:1],
{4}5h[2:1],1,1-6[8:1],1/5-3[8:1],
5/2-8[8:1],2/7-4[8:1],{8}7/3-8[8:1],3-6[8:1],,,{2}2>4[8:1],
{4}5/6,1/2h[2:1],
{16}1,8,7,6,{4}5>1[4:1],{8}1<5[4:1],1,,3h[2:1],
,,,5pp8[8:9],{2}5-2[4:1],
{4},4-1[4:1],,,8z4[8:1]*z4[8:1]`1s5[8:1],
1b/8b,{16}3,4,3,4,{8}2,6/5,
7,6/3,4,3,4/2,5h[16:3]/3h[8:1],,2h[8:1],
6,7h[8:1]/4h[8:1],,7/4,{16}6,4,5,3,{8}4,3/2,
,5,3,4,{4}3/5-7[8:1],5/3-1[8:1],
3/8-6[8:1],8,{16}2,3,4,5,8,7,6,5,
{8}3h[2:1],{16}6,7,{4}8,6<8[8:1],2>4[8:1],
5-7[8:1],1-3[8:1],1b/8b,{8}8/2h[4:1],7,
6h[4:1],3,4h[2:1],7,6,5,6h[8:5],3,
2,1,8,8,{4}1b/7b,{8}8/2h[8:1],7,
1/6h[4:1],2,{4}3,{8}5/4,5/4,6/3,6/3,
2/7,2/7,8/1>4[2:3],1/8,,,,,,,,,,,,,,,,,{2}5<8[2:3],
,,,1pp4[2:7],
,,,6pp8[2:3]*pp8[2:3],
,,,2V48[2:3],
,6-8[2:1]*-8[2:1],
{4},,2<4[2:3],2-6[4:3]*-6[4:3],
,,,,,,{2}7-3[2:3]*-3[2:3]`1-5[2:3],
,,,8p2[2:1],
{1}5s1[2:1]*s1[2:1],
{16}3,4,5,6,7,8,1,2,{4}3/4b-8[8:1],4b,
{8}1-3[8:1],5,1-7[8:1],6,1,5<7[8:1],1,5,
2,2/8h[8:7],{16}4,5,6,7,,1,2,3,{4}4-2[8:1],
4-6[8:1],4,8-6[8:1],8V24[4:1],
{2}7h[4:1],{4}7-4[8:1],7/1-4[8:1],
1/8-5[8:1],8/2-5[8:1],2/7z3[4:1],3s7[4:1],
,,8<5[8:1]`1>4[8:1],8`1p8[4:1]*p8[4:1],
{2}6>3[4:1],{8}1,1,2h[2:1],5,
{16}7h[4:1],,,,,3,4,5,{4}6<8[8:1],6>4[8:1],
{8}2-5[8:1],2,6-1[8:1],6,3-6[8:1],3,7-2[8:1],7,
4,4,3,3,{4}2<7[8:1],2/6>3[8:1],
{8}6/1v4[8:1],1,5v8[8:1],5,2,2h[8:1],{16},3,4,5,
6,7,8,1,{4}2,3b/6b,{16}8b/1b,7,6,5,
4,3,2,1,{4}8/4,{6}3/4,5/6,{12},1/8h[24:11],
,,,{4}1h[4:1],{8}8,7,6/2h[8:1],7,
{4}1/8h[8:1],5/3h[4:1],{16}6,5,4,3,2,1,8,7,
{2}6h[4:1]/3h[4:1],{16}4/8<4[4:1],3,2,1,{4}8-4[4:1],
,6V82[4:1],2<6[4:1],4>5[4:9],
,,4,3,
{8}4,4,,3,{4}3,2,
{8}3,3,{4}1,7-4[8:1]*-4[8:1]`2v5[8:1],2/7V13[4:1],
,4<8[4:1],{8}4,3,{4}2q5[4:1],
,,8-4[8:1]*-4[8:1]`2b-4[8:1],8`2-6[8:1],
2/5-8[8:1],5,{8}2<6[4:1]*<6[4:1],2,6>2[4:1],6,
,,,,{4}7-4[8:1]*-4[8:1]`1-5[8:1],7/1V35[4:1],
{8}6,7,{4}8<4[4:1],4>8[4:1],8<4[4:1],
{8}4,2,{4}8,{16}3,2,1,8,7,6,5,4,
3,2,1,8,7,6,5,4,{24}8b,1,2,3,4,5,6,7,8,1,2,3,
{4}4h[4:1],5,8-6[8:1]*-6[8:1]`1-3[8:1],1-5[8:1]`8-4[8:1]*-4[8:1],
8/1,{8}7/3,7/3,{4}8V64[4:1]*V64[4:1]`4V28[4:1],4pp6[4:1]*pp6[4:1]`8pp2[4:1],
,,{2}7h[4:3]/3V52[4:3],
{8},,,6,7,8z4[16:3]/1s5[16:3],6/3,8/1,
E
