&title=超ナイト・オブ・ナイツ
&artist=ビートまりお×まろん
&first=0.03
&des=超 Knight Cuplid
&des_5=
&lv_5=14+
&inote_5=(193){4},,2/5h[4:1],3h[4:1],
{16}6,4,5,4,6,5,{8}6h[4:1],,7h[4:1],,8,
{4}8/2V46[4:1],{8}6,7,{4}8h[4:1],2h[4:1],
{16}7,1,8,1,7,8,{8}7h[4:1],,6h[4:1],,5,
5-1[8:1],4-2[8:1],5,4,{16}8,7,6,5,1,2,3,4,
6,7,8,1,4,3,2,1,7,6,5,4,E8,E7,E6,E5,
1,2,3,4,E2,E3,E4,E5,6x,5x,6,5,7,4,7,4,
8,3,8,3,1,2,4,3,5,2,5,2,6,1,6,1,
7,6,5,4,1,2,3,4,{2}8bh[2:3],
,4bh[2:1],
{16},,E8,E4,E7,E3,E6,E2,{2}E5f/E1,
{8},,,,,,,,,,8,
1,Cf,,,E5f,
,,,,{2}6h[2:1],
{4}5h[4:1],{16}7,7,4,4,{4}8h[4:1],B4f,
2h[4:1],B6f,8h[4:1],E4f,
1h[4:1],B4f,{8}8h[4:1],6,5h[4:1],7,
6h[4:1],3,1,5,1/2,3/4,6/5,7/8,
{32}1-5[8:1],2,3,4,5,6,7,8,{4}1b,{8}6/4,6,{16}4,5h[8:1],,3,
{8}4h[8:1],{16}2,1,3,7,5,6,{8}4,3,{16}5,2h[8:1],,1,
8-4[8:1],7,6-1[8:1],5,{4}4,{8}3,8,{16}8,1h[8:1],,7,
{8}8h[8:1],{16}6,5,7,3,1,2,{8}8,6,{16}1,6h[8:1],,8,
1-5[8:1],2,3-8[8:1],4,{4}5,{16}7bx,1bx,7bx,1bx,{8}7bxh[8:1],{16}4bx,6bx,
4bx>1b[8:1],6bx,{8}4bx<7b[8:1],{16},,,,2bx,8bx,2bx,8bx,{8}2bxh[8:1],{16}5bx,3bx,
5bx<8b[8:1],3bx,{8}5bx>2b[8:1],{16},,,,7h[16:3],,,1h[16:3],,,6,2,
{8}4h[8:1],{16}3,5,{8}1h[8:1],7h[8:1],{16}5b,,,2b/4,,,{8}5b/6,
{4}3bqq4b[4:1]/7bqq8b[4:1],7/3,{8},3x,{16}6,5,7,5,
{8}8,6/4,{16}3,4,2,4,{8}1,3/5,{16}6,5,7,5,
{8}8<5[8:1],3>8[8:1],8,3,6,2x,{16}3,4,2,4,
{8}1,3/5,{16}6,5,7,5,{8}8,6/4,{16}3,4,2,4,
{8}1,{24}1/8,2,3,{8}4,7,4/6-8[8:1],2-4[8:1],6,2,
1-6[8:1],5-2[8:1],1,5,8<5[8:1],3,{16}3,2,{8}1,
1>4[8:1],6,{16}6,7,{8}8,5,7,{16}3,4,2,4,
{8}1,{16}7-4[8:1],8,6,1,{8}7,{16},,3,5,{8}2,3/6<1[8:1],
2,{24}1,2,3,{8}4,4/8,7,6/5,{16}3-8[8:1],4,3,5,
{8}3,6,{16}7-4[8:1],8,7,1,{8}7,2,{16}1-5[8:1],5,1,4,
{8}1>4[8:1],6<1[8:1],1,6,3,8,{16}2-5[8:1],1,2,8,
{8}2,7,{16}6-1[8:1],5,6,4,{8}6,3,{16}2,1,2,8,
{8}2h[8:1],{24}8,7,6,{8}5,3,8/2-4[8:1],6-8[8:1],2,6,
5-2[8:1],1-6[8:1],5,1,4>1[8:1],7,{16}7,6,{8}5,
5<8[8:1],2,{16}2,3,{8}4,{16}1/2h[4:1],8,7,6,{8}5,{16}4/5h[4:1],3,
2,1,{8}8,{32}B1,B2,B3,B4,B8,B7,B6,B5,,,,,{16}3,4,{8}2,1/2,
{32}8,7,6,5,4,3,2,1,{4}8b,1-5[8:1],1<7-3<5-1b[2:3],
,,,,,,8,
2,
{8}7/4,7/4>1[8:1],,6,,,{4}8/6h[4:1],
5h[4:1],4h[4:1],{2}3h[2:1],
{8}7,7,,4/2,{16},,6,5,{8}7,{16}3,4,
{8}2,{16}6,5,{8}7,3,{2}2/4<7[4:1],
{8}8,8>3[8:1],,8/7,{16},,6,5,{8}7,{16}3,5,
{4}2-5[8:1]/6-1[8:1],6/2,{2}8/Ch[4:5],
7,{4}6,5<8[4:1]*>2[4:1],
,,{2}1/Ch[4:5],
2,{4}3,4>1[4:1]*<7[4:1],
,,1/7h[4:1],5h[4:1],
3h[4:1],{8}1,1h[8:3],,5,{4}5<8[4:1]*>2[4:1],
,,7-5[8:1]/1-5[8:1],7-3[8:1],
{8}7/1,1-6[8:1]*-4[8:1],,1,,7/3,6,4,
7h[4:1]/1h[4:1],,,2/6-2[8:1],{16},,2/6,3,{4}4-7[8:1]*-1[8:1],
4,{8}6/2,3/5-1[8:1],6,5/3-8[8:1],2,3/7,
{2}6bh[2:1],{12}E2,E3,E4,E6,E7,E8,
D2,D3,D4,D6,D7,D8,1,2,3,5/4,6,7,
{4}8-4[8:1]/1-5[8:1],E1f,{8}7/3-8[8:1],7,{16}8,7,6,5,
{8}4-7[8:1],4/1,{16}8,1,2,3,{8}4,6/5,{16}7-3[8:1],8,6,8,
{8}7<4[8:1],2<7[8:1],7,2,5b,1,{16}2-5[8:1],4,3,4,
{8}2,6,{16}7-4[8:1],5,6,5,{8}7,3,{16}2-6[8:1],4,3,4,
{8}2>5[8:1],7>2[8:1],2,7,3b-8[8:1],8,{16}8,7,6,5,
{8}4-7[8:1],4/1,{16}8,1,2,3,{8}4,6/5,{16}7,8,7,8,
{8}7,{24}1/8,7,6,{8}5,2,{4}3-1[8:1]/4-8[8:1],4/3-7[8:1],
{8}5/3,5-8[8:1]*-2[8:1],,5,,7b/B3f,,1b/E6f,
,D7f/A7/A6/E7,{4}D3f/A2/A3/E3,{8}2/6-1[8:1],2,{16}1,2,3,4,
{8}5-2[8:1],5/8,{16}1,8,7,6,{8}5,3/4,{16}2-6[8:1],1,3,1,
{8}2>5[8:1],7>2[8:1],2,7,4,8,{16}7-4[8:1],5,6,5,
{8}7,3,{16}2-5[8:1],4,3,4,{8}2,6,{16}7-3[8:1],5,6,5,
{8}7<4[8:1],2<7[8:1],7,2,6-1[8:1],1,{16}1,2,3,4,
{8}5-2[8:1],5/8,{16}1,8,7,6,{8}5,3/4,{16}2,1,2,1,
{8}2,{24}8/1,2,3,{8}4,7,{16}8bx,8bx,8bx,8bx,{8}8bx,{16}1bx,1bx,
1bx,1bx,{8}1bx,2b/8b,7bh[8:1]/3bh[8:1],{16},,6b,5b,{8}7b,4,
{2}8/1,{32}8b<1[4:5]/1b>8[4:5],E1,B8/B1,C/B7/B6/B2/B3,B5/B4,E5,{1},{4},,,{16},{8}E8,
E2,{16}E7,B6,{8}B5,
E1,{16}E3,B3,{8}B4,A3/A6/B6/B3,{16},,,,2,7,2,7,
1b,8b,1b,8b,1b,8b,1b,8b,{2}1b,
{32}1b/8b,7,6,5,,,,,,,,,,,,,8b/1b,2,3,4,,,,,,,,,,,,,1b/8b,
7/2,6/3,5/4,,,,,,,,,,,,,{8}5/6,5/6,4/3,4/3,
1/2,{16}2/1,3/8,{8}4/7,6b-2[8:1],{16},,2/6,3,{8}4-7[8:1]*-1[8:1],5/3,
{4}4b,{32}8,7,6,5,8,1,2,3,{4}8b-3[8:1],{8}6/8b-5[8:1],7,
8/3x,2,{16}1-5[8:1],4,2,5,{8}1,7,{16}8-4[8:1],5,7,4,
{8}8<5[8:1],3>8[8:1],8,3,6,2,{16}4-8[8:1],7,3,8,
{8}4,6,{16}5-1[8:1],8,6,1,{8}5,3,{16}4-8[8:1],1,3,8,
{8}4>1[8:1],7<4[8:1],4,7,{16}2b,3,6b,7,3b,4,7b,8,
4b-8[8:1],5,8b,1,{4}4b,{16}6b,7,2b,3,7b,8,3b,4,
8b-4[8:1],1,4b,5,{4}8b,{8}6/2,{32}E6/E3,E5/E4,{16}A4,,,,,{8}3/7,
{32}E4/E7,E5/E6,{16}A5,{32},,,,,,,,1bh[8:1]/A8,A7,A6,A5,,,,,1bh[8:1]/A2,A3,A4,A5,,,,,8/1bh[8:1],
7,6,5,,,,,2/1bh[8:1],3,4,5,,,,,{8}8,8,{16}1,8,2,7,
{8}3/6,5/4,{16}4,5,{8}3h[8:3],,,{4}5h[4:1],
7h[4:1],1h[4:1],{2}3h[4:7],
,6h[4:3],
{32},,,,,,,,,,,,,,,,7b,6,5,4,{16}2b,2,5b,5,{32}8b,1,2,3,
{16}7b,7,{32}5b,4,3,2,{24}8,1,8,1,8,1,{32}8b-4b[8:1]*w4b[8:1],,,,,,,,,A8/D2/D1/B3/E6/E7/Cf/E5/B8/B1/E4/B4/B5/B6/B7/D3/E8/A1/E2/B2/E3/A3/D4/A4/D5/A5/D6/A6/D7/A7/D8/E1/A2,
E
