&title=Booby Trap
&artist=Yooh
&first=0.43
&des=真春
&wholebpm=200
&des_5=真春
&lv_5=14
&inote_5=(200)
{4}E4,B3,B2,E2,
E5,C,E1,E2/E4,
E6,B6,B7,E8,
C,E1/E5,E3/E7,1x,
E6,B6,B7,E8,
E5,C,E1,E8/E6,
E4,B3,B2,C,
A4/A8,E2/E6,8-4[8:1]/4,C,
{8}3hb[8:3]/5,,,7,7-5[8:1]/5h[4:1],,7,,
3h[4:1],4,4,,7-5[8:1]/5h[4:1],,,,
3h[8:3]/4,,,7,7-5[8:1]/5h[4:1],,7,,
3h[4:1],4,4,,7-4[8:1]/5h[4:1],,,,
4x/2,3,4,3,7/4x,6,5,6,
4x/2,3,7/5x,6,4x/1,3,8/5x,6,
{16}4,5,4,5,3,6,3,6,2,7,2,7,1,8,1,8,
{12},,,E6,B5,B4,{8}E4,,4x/5x,,
2-4[8:1]/8,,5,5,6-4[8:1]/1-5[8:1],,,,
2-4[8:1],2,5,5,1-5[8:1]/6-4[8:1],16,,,
2-4[8:1]/8,,5,5,6-4[8:1]/1-5[8:1],,,,
2-4[8:1]/7,2,5,5,1w5[8:1],1,,,
7x/3x,,7-4[8:1],1,7,,7-3[8:1],8,
7,2-5[8:1],1-6[8:1],2,1,,
7-4[8:1],8,72,,8-4[8:1],1,83,,2,7,
{16}4,5,{8}4,54,54,5/4-8b[8:1],54,,,
7x-5[8:1]/1x,,4,4,3-5[8:1]/8-4[8:1],,,,
7-5[8:1]/2,7,4,4,8-4[8:1]/3-5[8:1],83,,,
7-5[8:1]/1,,4,4,3-5[8:1]/8-4[8:1],,,,
{24}E7,B6,B5,E5,,,E3,B3,B4,E5,,,E8,B7,B6,{8}E6,Cf/2-4[8:1],,
2b/7b,,2-5[8:1],8,2,,2-6[8:1],1,
2,7-4[8:1],8-3[8:1],7,8,,
2-5[8:1],1,2/8-4[8:1],,8/1-5[8:1],,1/7-5[8:1],,27,,
E3/B2,E7/B6,E5/B4,E1/B8,7x/2x,54,8b/1b,,
6pp3[8:5],,4,4,,2,2,,
1-4[8:1],,4qq8[2:1],,,,,,
7<3[16:5],,3,3V57[16:5],,7,{4}7,
8-4[8:1],5-7[8:1],,{48}E2,B2,,,,,E8,B7,,,,,
{8}3qq6[8:5],,5,5,,7,7,,
8-5[8:1],,5pp1[2:1],,,,,,
3,3,1,1,8,8,6h[2:1],,
{4}1^4[8:1],1^6[8:1],1w5[8:1],,
4x-1[8:5]/5x,5,6,6,
5x-8[8:5]/4x,4,3,3,
4xp1[8:5]/5x,5,6,6,
5xq8[8:5]/4x,4,3,3-6b[8:1],
{1},
{12}75,,3,42,,8,75,,1,42,,6,
{6}6x/5,7/4x,8x/3,4x/3,5/2x,6x/1,
{12}5>1[4:1]/6,,,8,7,6,{4}5,Cf/E3/E7,
1-6-8-4-2-5-1[8:11],,,,7,7,7,72,
8-3-7-5-2-4-8[8:11],,,,1,1x,1,71,
2^5-2[2:1],5,2^5[4:1],6,
8^5-8[2:1],5,8^5[4:1],4,
1^4[8:1],4,7^4[8:1],4,
{8}51,62,48,37,15,26,84,37,
1x/5x,6,4,5x,1,4,2,1,3,4,2,1,4-8[8:1]/3,,E2/B2,,
2x/6x,3,5,4x,7,5,8,1,7x/5x,4,6-1[8:1],,3,,{48}D2,E2,,,,,D8,E8,,,,,
{8}3x/Cf,3,3,3,5x/E1f,5,5,5,
2/B6f,2,7/E4f,7,1/B5f,1,8/Cf,8,
64,64,37,82,{16}1w5[40#60:1],1,1,1,1,1,1,1h[16:9],
{4},,,1b,
{8}2x/7x,,43,3,45,{16}6,5,{8}7-1[8:1],7,
2-6[8:1],2,5-3[8:1],5,1,1,82,,
71,,56,6,54,{16}3,4,{8}2-8[8:1],2,
7-3[8:1],7,4-6[8:1],4,8,8,1^4[8:1]/7^4[8:1],,
1b/7b,,5,6,45,{16}3,4,{8}2-4[8:1],5,2-8[8:1],8,2-6[8:1],5,2,7,8q5[8:1]/1p4[8:1],,
18,,3,63,{16}4,5,3,6,2,7,1,,
{24}2b/8x,3,4,5,,,7b/1x,6,5,4,,,1b/8xw4b[8:1],2,3,{8}4,Cf,,
62,,4-8[8:1]/2,3,46,,17,62,
31,84,1pp4[8:3]/7,53,61,,7,,
82,1,8^5[8:1]/6,7,81,,43,52,
1w5[8:1]/6,87,1,,8^5[8:1]/2v5[8:1],,,,
43,6,5-1[8:1]/7,4,53,,82,37,
68,15,8qq5[8:3]/2,46,38,,2,,
17,8,1^4[8:1]/3,2,18,,56,7,
1b/8h[2:1],,2b,,3bw7[8:1],,3/Cf,,
5x/1x,,6,6,2-5[8:1],7-4[8:1],2,7,
1-5[8:1],8-6[8:1],1-3[8:1],8-4[8:1],1-6[8:1],8,1,,
48,,3,3,7-4[8:1],2-5[8:1],7,2,
8-4[8:1],1-3[8:1],8-6[8:1],1-5[8:1],8-3[8:1],1,8,,
1x/5x,,6-4[8:1],2-5[8:1],6,2,7-5[8:1],8-4[8:1],7-3[8:1],8-2[8:1],7-4[8:1],8-3[8:1],7^5[8:1],8,7,,
42,,3-1[8:1],7v4[8:1],3v8[8:1],7-5[8:1],3,7,
1x-5-3b[24:5],,,,{32}6,7,8,1,2,3,4,5,{8}6b/2b,,
73,4,5^8[8:1]/2,3,51,,21,65,
87,43,8-5[8:1]/1-4[8:1],63,81,,73,,
26,5,4^1[8:1]/7,6,48,,78,34,
1w5[8:1]/2,56,1,,82,,{16}1bh[16:1],7bh[16:1],3bh[16:1],5b,
{8}6x/4x,2,4,1,5x/3x,7,5,8,6/4x,1,5x/3,8,7/5x,1,2/4x,8,
5,64,37,28,{16}1,1,1,1,1,1,1,1,
2-6[8:1],,,,6,,,,7,5,1,3,8w4[8:1],,,,
E
