&title=ウシロジカン
&artist=ゆーり/原口沙輔
&first=0.01
&des=BillyG vs Tucaonormal
&des_5=BillyG vs Tucaonormal
&lv_5=13+
&inote_5=(170){4},{1},{4},{16}E2,
E3,E4,E5,E6,E7,E8,E1,
{8}1xh[8:3],8xh[8:1],{16},7,,,{8}2h[8:3],6h[8:1],,,,2/6h[4:1],
{4}3h[16:1],{8}4-6[16:1],6-3[16:1],,,5xh[8:3],
4xh[8:1],{16},3,,,{8}6h[8:3],2h[8:1],,,,6/2h[4:1],
{4}7h[16:1],{8}8-6[16:1],1-3[16:1],8b,1b,
5xh[8:1],3,{16}5h[8:1],3x,{8}3x,5h[8:1],2,6/1,1h[4:1]/6h[4:1],
{16},,,,2,8,{8}2,2/7,3-8[8:1],5/4,3x,
6xh[8:1],1,{16}6h[8:1],1x,{8}1x,7h[8:1],2,8/1,1h[4:1]/8h[4:1],
,,{4}2b-4[8:1]/8b-6[8:1],2b-6[8:1]/8b-4[8:1],2x/8x,
{8}7x/4xh[8:1],7,6/3h[8:1],6x-4[16:1],,B4/B3/E4/6-8[16:1],C,6x/B2/E2/B1,
,1h[8:1],7h[8:1],1h[8:1],{16}E8,E7,E6,E5,{8}2/4xh[8:1],2,
,1h[4:1],E6,7xh[4:1],E4,2xh[4:1],,6,
,3,{16}6,5,{8}6,{16}3,4,{8}3,{4}5/2,
{8}1h[8:1],2h[8:1],3h[8:1],4h[8:1],3-5[16:1],6-8[16:1],3,6,
4x,7x,{4}3/6,{8}7/4h[8:1],7,2/5h[8:1],2,
6-8[16:1],1-3[16:1],6x-4[16:1],1,6x,3,2/5,6,
{4}4/7,6-1[8:1]/3-8[8:1],6x/3x-5[16:1],{8}3x/8x,{16}E8,E7,
{4}E6/4-2[16:1],{8}4,{16}E6,E7,{8}E8/3-1[16:1],8x-6[16:1],3,8,
,2,1-3[16:1],{16}5,5,{8}1-7[16:1],5-8[16:1],{4}1,
{8},1,2-8[16:1],{16}6,6,{8}2-4[16:1],6-3[16:1],{4}2,
{16},,3,5,{4}3h[8:1],{16}6,4,{8}6h[8:1],{16}E4,E3,E2,E1,
{4}Cf/E8,{8}4x>2[16:1],{16}6x<8[16:1],6x,{8}4-7[8:1],6-2[8:1],,,,4x,
{16}8/4h[4:1],,,7,{8}7xh[8:1],3h[8:1],8h[8:1],4h[8:1],
1,3,8x<6[16:1],{16}2x>4[16:1],2x,{8}8-4[8:1],2-5[8:1],,,,5x,
{4}4b-2[8:1]/6b-8[8:1],4b>1[8:1]/6b<1[8:1],4b/6b,
{8}8-6[16:1],8-2[16:1],{4}8<5[16:1],,6/2h[4:1],
{8}4-6[16:1],4-2[16:1],{4}4<7[16:1],,2/6h[4:1],
{8}1<7[16:1],1>3[16:1],{4}1-6[16:1],{8},,4-2[16:1],5-7[16:1],
4-6[16:1],5-3[16:1],{4}4>1[16:1],{8},,1-3[16:1],6-4[16:1],
1x-7[16:1],6x-8[16:1],1x-3[16:1],6x-4[16:1],{2}1x-5[8:1],
{8}4-2[16:1],7-1[16:1],4x-6[16:1],7x-5[16:1],4x-2[16:1],{16},,,,1x,8x,
{4}3b-1[8:1]/7x-5[8:1],7b/3b-5[8:1],{8}3b-8[8:1],8b>3[8:1],3b<6[8:1],7b,
{4}7b,5x/7x,{16}1x/8,2x,3x,4x,5x,6x,7x,8x,
{4}1x/Cf,{8}1>5[4:1],{16}7,7,{8}1,8-3[8:1],7,8,
,4,3>7[4:1],{16}5,5,{8}3,6-1[8:1],5,6,
,2,3V57[4:1],{16}1,1,{8}3,2-8[8:1],1,2,
,7-5[8:1],4,7b-4[8:1]/3b-8[8:1],,3b/7b,,E6/B5/B6,
{4}B2/E2/B1,{8}5<8[8:1],{16}3,3,{8}5-1[8:1],1x>4[8:1],5x,7x,
,3x,4-1[8:1],{16}6,6,{8}4x-7[8:1],7x-2[8:1],4x,3,
{4}3b-8[8:1],{8}3,4b-1[8:1],,4,{4}5b-2[8:1],
{8}5b>2[8:1]*<8[8:1],6b,{4}5bv3[8:1]*v7[8:1],5b-1[8:1],5b,
8x/2x,{8}3-6[8:1],{16}6x>3[8:1],6x,{8}3x>8[8:1],8x-4[8:1],7,6,
,5,4-7[8:1],{16}7x<4[8:1],7x,{8}4x>1[8:1],1x-5[8:1],8,7,
,5x-7[8:1],7-1[8:1],{16}5x-2[8:1],4x,{8}3x,5x-1[8:1],7,5b>2[8:1],
,5x/6-1[8:1],6,6b,,2b/8b,2,8,
{4}1/3,{8}2pp6[8:3],{16}E1,E8,{8}E7,6x-1[8:1],7,8,
,7,5pp1[8:3],{16}E4,E3,{8}E2,1x-4[8:1],2,3,
{4}2b-5[8:1],{8}2,3b-6[8:1],,3,{4}4b-7[8:1],
{8}4x/6b-1[8:1],5b,{4}6x/4b-1[8:1],4b-8[8:1]/6b-2[8:1],4b/6b,
3xh[8:1]/7xh[8:1],{16}4,6,{8}4h[8:1],6h[8:1],5h[8:1],{4}7h[8:1],
{8},2/6,{16}5,3,{8}5h[8:1],3h[8:1],6h[8:1],{4}4h[8:1],
2xh[8:1]/5xh[8:1],{16}3,5,{8}3h[8:1],6h[8:1],4h[8:1],{4}7h[8:1],
{16},,6,4,6,4,{8}6,{16}3-1[16:1],3,{8}5-7[16:1],3b,5b,
{4}2xh[8:1]/8xh[8:1],{16}1>4[8:1],7h[16:1],,,{8}1x/6-1[8:1],5,6x/3,4,
,3/7,{16}2-5[8:1],8h[16:1],,,{8}2x/7-4[8:1],8,3/7x,3,
{4}2h[8:1]/5h[8:1],{16}4-2[16:1],3,{8}4-6[16:1],4x>8[4:1],4x<8[4:1],,,,B8,
{4}7b-5[8:1]/1b-3[8:1],1b-7[8:1]/7bqq4[8:13],1b,
{8}E8,B8,{32}E1,,,B1,,,,,{4}E2,{8}E1,B1,
E2,B2,{32}3xqq8[2:3]*-5[8:1],,,3x,,,,,{4}3x,{8}B4,E5,
B5,E6,{32}B6,,,E7,,,,,{4}B7,{8}B7,E7,
B6,E6,{16}1x,6x,{8}1x,{16}8x-2[8:1]*qq5[8:13],3x,{8}8x,{4}8x,
{8}E1,E2,{32}1x-3[8:1],,,2x,,,,,{4}1x,{8}B2,E3,
B3,B4,{32}4xqq1[2:3]*-6[8:1],,,3x,,,,,{4}4x,{8}E6,B6,
E7,B7,{32}7x-5[8:1],,,6x,,,,,{4}7x,{8}E5,E6,
,7b,{4}6/8b-4[8:1],8b/5b-2[8:1],{8}5b,3,
4-2[16:1],1-7[16:1],4x-6[16:1],1x,{4}4x,4xh[4:1]/8-2[16:1],
{8}8-6[16:1],4-6[16:1],8x-2[16:1],4x,{4}8x,8xh[4:1]/3-5[16:1],
{8}3-1[16:1],8-6[16:1],3-5[16:1],8,{4}3,{8}7-5[16:1],4-2[16:1],
7-1[16:1],4-6[16:1],7-3[8:1],4,{4}7,{8}5/2-4[16:1],6-8[16:1],
2x-8[16:1],6x-4[16:1],2x-4[16:1],6x-8[16:1],{2}2x-6[8:1],
{8}5/7-1[16:1],3-5[16:1],7x-5[16:1],3x-1[16:1],7x-3[8:1],3x,7x,{16}8x,1x,
{4}2b-5[8:1],4b-7[8:1],{8}2b,1b,7b,8b,
{4}6b/4b,7x/3x,{16}1x,2x,3x,4x,5x,6x,7x,8x,
{4}1x/Cf,{8}1h[4:1],7h[4:1],,2h[4:1],,6h[8:1],
,5pp1[2:1],4/6,5,{4}3h[8:1],3h[8:1],
{8},4z8[2:1],5/3,4,6,6V41[4:3]*-3[8:1],5,6b,
,,,5b-8[8:1],,5b,,,{4}1-5[8:1],
{8}1-3[8:1],8-6[8:1],1,8,,C,
,5/4>1[8:1],6<1[8:1],4-1[8:1],6,4,8x-5[8:1],1x,
{4}8b-3[8:1],{8}8,1b-4[8:1],,1,{4}2b-5[8:1],
{8}2,3,{4}3b-8[8:1],{8}3b,{16}E6,E7,E8,E1,{8}E2,
{4}Cf,{8}3x/5x-7[8:1],{16}4-2[8:1],4,{8}5<8[8:1],4>1[8:1],,,6x,
5,6x/4x>2[8:1],{16}5<7[8:1],5,{8}4-1[8:1],5-8[8:1],,,1x,
2,2x/8xv6[8:1],{16}1v3[8:1],1,{8}8b<5[8:1],1>4[8:1],,,6x,
3x,5/4,6x/3b-8[8:1],,6b/3x,5-1[8:1],4,
{4}5x/2x,{8}2-5[8:1],{16}8-5[8:1],8,{8}2<8[8:1],8<6[8:1],2x,4x,
{4}5h[8:1],{8}3-8[8:1],{16}5-8[8:1],5,{8}3<5[8:1],5<7[8:1],3x,1x,
{4}1b-4[8:1],{8}1,8b-3[8:1],,8,{4}7b-2[8:1],
{8}7b,6b-1[8:1],,6b,{4}5b-8[8:1],{8}5b,4b-7[8:1],
,4b,{4}3b-6[8:1],{8}3b,2b-5[8:1],,2b,
1b>3[8:1]*<7[8:1],8,{4}1b-4[8:1]*-6[8:1],1b-5[8:1]*-5[8:1],1x,
{8}5x/4xh[8:1],6,{16}5h[16:1],6h[16:1],{8}5h[8:1],7-1[8:1],4-2[8:1],7,4,
,2,{16}8h[16:1],2h[16:1],{8}8h[8:1],1-3[8:1],8-6[8:1],1,8,
4h[8:1],5h[8:1],{16}3h[16:1],6h[16:1],{8}3,7/4-1[8:1],6-1[8:1],4,6,
{16},,2,8,2,8,{8}2h[8:1],{16}7xv4[8:1],7x,{8}3v8[8:1],7b,3b,
5,1x/6x,{16}2-4[8:1],7,{8}2,2-5[8:1],7-5[8:1],2,7,
,4x/7x,{16}3-1[8:1],6,{8}3,3-8[8:1],6-8[8:1],3,6,
1h[8:3],8x,{16}E8,E7,,,{8}1>4[8:1],5x<8[8:1],1,5,
,5,{4}4b>1[8:1]/6b<1[8:1],4bv1[4:1]/6bv1[4:1],Cf,
E
