&title=Starlight Traveler
&artist=ああああ vs 打打だいず
&first=0
&des_1=SetDesigner
&des_2=SetDesigner
&des_3=SetDesigner
&des_4=SetDesigner
&des_5=Hima
&lv_5=14
&des_6=SetDesigner
&des_7=SetDesigner
&des=SetDesigner
&inote_5=(214)
{1},
{8}6xh[8:1],,6xh[8:1],E2,6xh[8:1],B2,6xh[8:1],B3,6xh[8:1],E4,6xh[8:1],B4h[8:5],6xh[8:1],,6xh[8:1],,6xh[8:1],,6xh[8:1],E4,6xh[8:1],A3,6xh[8:1],E3,7xh[8:1],D3,7xh[8:1],E2,7xh[8:1],E1,7xh[8:1],B3,7xh[8:1],,7xh[8:1],E5,8xh[8:1]=,E3,8xh[8:1],A1,7xh[8:1],A2,7xh[8:1],A3,6xh[8:1],A4,6xh[8:1],E2,5xh[8:1],,5xh[8:1],,5xh[8:1],,
{64}B7,B6,B5,B4,B3,B2,,,,
{8},1xb/8xb,2xb/7xb,3xb/6xb,4xb-1[8:1]/5xb-8[8:1],,Cf/E5/E1,,,
{8}2/7,,3,4,5,6/3q4[8:3],,C,,6<4[8:3],6,6,,,,,1pp4[2:1]/8,,8,7,6,5-2[8:1]*-8[8:1],,5,,1w5[8:1]b,1,1,,
{16}2,8,2-5[8:1],,,,
{4}2b/7b-4[8:1],7b/3-6[8:1],8b-5[8:1]*-3[8:1],8b,
{8}1/7,1/7,2/6,2/6,
{16}5,6,7,8,
{12}2,2,4,3h[4:1],,,7,7,5,6h[4:1],,,2,4,3,7,5,6,1,3,2,8,6,7,
{32}1x,2x,3x,4x,5x,6x,7x,8x,1xb-4-7-2-5-1[8:14]b,,,,
{1},
{4},,,
{8}7xb,
{4}7xbp4[8:8],
{8},
{4},,C,,,2xb/8xb,
{8},3xbh[8:7]/7xbh[8:15],
{4},
{2},
{1},
{8}2,2xb<4[1:1]/8xb,,,,,,,C,,,,,
{16}D5,D6,D7,D8,D1,D2,D3,D4,
{16}4x/6x,,4x/6x,,3,5,3,,2/1,,8,,7,,6/5-1[8:1],,,,7/5,,8h[8:1],,2,1x,2>5[8:1],,8,,7/2,,6,,
{16}8/7,,8/7,,1/6,,2,5,2v5[8:1]b,,6-1[8:1]/1,,2,,6,,,,5,1x,5p8[16:6],1p4[16:5]b,5,1,,,,,,,,,
{16}1x>4[8:1]/7xh[16:4],,,,1,,,5,6h[8:1],,7h[8:1],,8h[8:1],,1s5[8:2],,,,8,,8,,8,,
{16}8/4,7/3,6/2,1/5,8-4[8:1]/4,7,6,5,4x/8x,,,,
{16}2/6,,2/6,,,,2,4,3,5,4,6,5-2[8:1],,,,7/5,,7>2[8:1],,,,3,,4,,4b-1-6-3[8:22]*-7-2-5[8:22],,,,,,,,,,,,,,,,,,,,,,,,,,,,,,,,,,,,,,,,,,,,,,,,,,,,,,,,,,,,,,,,,,
{8}4h[8:6]/3,,,B2,,1,1,,
{8}8h[8:6]/7,,,B6,,5,5,,
{8}4/2h[8:6],,,B5,,6,6,,
{1}7pp5[8:5]/1h[8:8],
{8}E5h[8:15]/D5h[8:15],,E1,E8,,,E1,E2,,A3,B3,C,B7,A7,E8,E1h[8:16]/D1h[8:16],,,
{8}E5,E6,,,E5,E4,,A3,E4,B4,B5,E6,A6,E7h[8:10]/D7h[8:10],,,
{8}E3,E4,,,E3,E2,,1,1,1,
{32}E2,E3,E4,E5,E6,E7,E8,E1,E2f/D2/A1/A2,,,,,,,,
{16}3x/5x,,3,4,3,,3,5,3,,3,6,3,,3x,4x,5x/7x,,7,5,7,,7,4,7,,7,3,7,,1/8,,
{16}2,1,3,8,4,7,5,6,8h[32:1],7h[32:1],1h[32:1],6h[32:1],2h[32:1],5h[32:1],3h[32:1],4q5[2:1],
{4},
{2},
{4}1x-5V31[2:1]/8x,1x/8x,7,6,
{8}5h[8:1],
{16}3,4,1>5[16:3],,,,
{16}5p8[4:1],6,7,,
{8},,7w3[8:1],,7,,
{16}2,1,8h[8:3],,4,5,6,,B6/B5/B8/B1,,,,3,4,3,5h[16:3],,,3,4,2h[16:4],,,,4,2,5,3,6-2-8[8:3],,,,
{4}5,4,3>8[8:1],
{32}7x,6x,5x,4xh[32:9],,,,,,,,,8x,1x/5x,2x/6x,3x-8[8:1]/7x-4[8:1],,,,,,,,,3x/7x,,,,,,,,
{8}2/6,,3/5,3/5h[4:1],,2,1/6,1/6,
{16}7,8,7,8,6,1,6,1,5,2,5,2,4,3,4,3,4,5,6,7,8/1x,2,3,4,8x,7,6,5,4,3,2,1,4x,3,2,1,8,7,6,5,8x,7,6,5,4,3,2,1,4/8x,,,,
{8}3/6,5h[4:1]/4,,
{16}3,4,1h[4:1],,
{8}8,8V64[16:3],,B1/E2,B3/E3,,3x/4x,2xbh[4:1]/5xb<2[16:5],,,,E3/B3,D4,,6/5,4xb>7[16:5]/7xbh[4:1]b,,,,
{8}E7/B6,D6,,4/5,3xb/6xb-8[8:1],,1,1,2,2,3,3,4,4,
{16}5,6,5,7,5,8,5,1h[16:9],
{32}5x,4,3,2,,8,7,6,5>3-1[4:1]b,,,,,,,,
{8}5,8,7,6h[8:6],,B8/B1,,B5/B4,,4,3/7,3-5[8:1]/7,,8,8v5-7[4:1],,3,2,1,1v4-2[4:1],,7,6,5h[8:3],,,
{16}3,4,2h[8:1],,6,5,7h[8:1],,
{8}1-5[8:1],,1/8,7-5[8:1],7,7-1[8:1]/3-1[8:1],,3-6[8:1]/7-4[8:1],,7/3,,2/8,2/8,2h[8:5]/8,,E8/B8,E6/B5,,4,4,3,2>5[8:1]/5h[8:1],,6,7,8,,
{16}4,3,8,7,3,2,7,6,2,1>6-4>3-1[8:30],Cf,,,,,,,,
{4}7h[8:1],,8h[8:1],,8h[8:1],8h[8:1],7h[8:1],,7h[8:1],,6h[8:1],,5h[8:1],5h[8:1],4-6<7-1<4[8:22]b,,
{4}1h[8:1],,2h[8:1],,3h[8:1],3h[8:1],2h[8:1],,1h[8:1],,8h[8:1],
{8},E1,E5,E2,E6,E3,E7,E4,
{8}E1f/E5h[8:7],,,B7f,,,,E8h[1:1],,E7,E6,E5,E4,E3,E2,E1h[1:1],A6f,,,E5f,,,,A7h[1:1],,B2,B6,B3,B5,E4,E5,A4h[8:10]/D4h[8:11]/D5h[8:12],A8f,,,B6f,,,,Ch[8:5],,,,,
{32}E4,E3,E2,E1,E8,E7,E6,E5,,,,,,,,,
{16}4/5,,4,5,4,,4,6,4,,4,7,4,,4,3,2/8,,8,2,8,,8,3,8,,8,7,6h[8:1]/4h[8:1],,,,4,5,3,6,2,7,1,8,
{32}1x,8x,1x,8x,1x,8x,1x,8x,1x,8x,1x,8x,1x,8x,1x,8xw4
[8:14],,,,,,,,,
{1},,
{8},,,,,,
{1}1xbpp3pp5pp7pp1[4:25]b`8xb>8[4:25],,,,,,,{8}E1,,C,
{16}D4,A3,D3,,
{8}D5,E6,D7,E8/B8f/E1/A8,,,,
{4}3/4h[4:1],B3,2/5h[4:1],B2,1/6h[4:1],B1,
{8}8/7h[8:3],,5,5h[8:3],,6,6,4/7,4/7h[8:6],,1,1-3<4[8:2],,,,,
{8}8,8,5,5h[4:1],,6,5,7,1h[4:1],,3h[4:1],,
{16}5xh[16:3],,,6xh[16:3],,,7xh[16:2],,
{8}8x<5[8:4],,1,,2,,3,,4>1[8:4],,5,,6,,7,,8/1,2,1/7,6,8/2,3,1/6,5,
{16}3,4,2,8,1,7,5,6,E4/B4,E3,E2,D1,D8,D7,D6,D5,
{8}4xb-1[8:1]*-8[8:1],,4<6[8:1],,7-3[8:1]/4,,7/1h[4:1],,
{16}5,2,5h[4:1],,,,4,7,4h[4:1],,,,
{8}8-6[8:1],,8/2-4[8:1],,2/5<8[8:1],,5>2[8:1],,5,,
{16}7,1,8h[4:1],,,,2,4,3h[4:1],,,,7,3,6,4,5-7[8:1],,,,
{8}5/4>1[8:1],,4/8w4[8:1]b,,8,,
{32}7h[4:1]/1,2,3,4,,,,,,,,,2h[4:1]/8,7,6,5,,,,,,,,,8-4[8:1]b,7/1,2/6,3/5,,,,,8,,,,,,,,
{8}2/7,2/7,,3/6,4/7,5/8,
{16}8,5,7,4,6,3,5,2,8,1,8,1,8,1,8,1,
{16}8xb,7,6,5,4,3,2,1,8xb/B3,7,6,5,4,3,2,1,8xb/B2,7,6,5,4,3,2,1,8xb/C,7,6,5,4,3,2,1,
{8}4-1-3[4:1]/8x,,7,7h[4:1],,
{16}4,6,5-2-4[4:1],,
{8}7,7,,8,8<5[8:1],,B4/E4,B2/E3,,
{32}1,2,3,,7,6,5,,1,2,3,,7,6,5,,1,2,3,,,,,,E6/B5,,,,E7/B7,,,,8,7,6,,2,3,4,,8,7,6,,2,3,4,,8,7,6,,,,,,B4,,,,C,,,,8x,7x,6x,5x,8x,1x,2x,3x,8x,7x,6x,5x,8x,1x,2x,3x,8x,7x,6x,5x,,,,,B5,,,,C,,,,1x,2x,3x,4x,1x,8x,7x,6x,1x,2x,3x,4x,1x,8x,7x,6x,1bx,2bx,3bx,4bx,5bx,6bx,7bx,8bx,1bx,2bx,3bx,4bx,5bx,6bx,7bx,8bx,1bxq7q5q3q1[8:22]b/Cf,,,,,,,,,,,,,,,,,,,,,,,,,,,,,,,,,,,,,,,,,,,,,,,,,,,,
{8}6x,7x,8xh[1:1],
{4},
{1},
{16}2,2,4h[8:1],,3,3,5h[8:1],,4-8[8:1],4,6h[8:1],,
{8},,,1/7h[4:1],,5-1[8:1],,5/3h[8:4],,8,7,6-8[8:1],,6/4,3>8[16:3],,7,6,5,4h[4:1],,3,1/7,3/5,,4,
{16}4/5,6,7,8,1w5[8:1]b/5,4,3,2,1,,,,1/8,,2,4,3,,7,5,6,,3,4,2,,6,5,7,,3,4,3,,6,5,6,,1,8,2/7,,,,4/5,,3,3,4,,6,6,5,,3,3,4,,5,5,
{8}4>8[4:1],,8<4[4:1]b,,5,,
{32}E3,E2,E1,E8,E7,E6,E5,E4,
{8}3x-8[8:1],3x,7-4[8:1],7,2-5[8:1],2,6-2[8:1],6,4-1[8:1],4,8<4[8:1],8,3-6[8:1]*-7[8:1],,,,
{16}1,8,2,4,3,6,4,5,3,,
{32}8x/1x,2/7,3/6,4/5,,,,,
{8}C/B4/B5,,2/3,8/7,2/6,3/5,1/2,7/3,4/6,2/7,,
{12}1-4[8:1]/8-5[8:1],1/8,1/8,1b/8b,,,,,,,,,,,,,,,
E
