&title=Constant Moderato
&artist=ミツキヨ
&first=0.117142856
&des=CH3COOL
&lv_5=13
&inote_5=(112)
{1},
||{8}1,,1,2,,2,3,,
||{8}8,,8,7,,7,6,,
||{8}4,,4,3,,3,2,,
||{8}5,,5,6,,6,7,,
{16}1h[16:3],,,2h[16:3],,,4,,5h[16:2],,6,,18,,,,
{16}2h[16:3],,,3h[16:3],,,4,,6h[16:2],,5,,23,,,,
{16}4h[16:3],,,5h[16:3],,,6,,7h[16:2],,8,,5/6,,,,
{16}5h[16:3],,,4h[16:3],,,2,,1h[16:2],,8,,67,,,,
{16}1h[16:3],,,2h[16:6],,,3,,,1h[16:3],,,3,,4,,
{16}5h[16:3],,,6h[16:6],,,7,,,5h[16:3],,,7,,8,,
{16}5/1h[16:3],,,2h[16:3],,,3h[16:3],,,4h[16:3],,,5,,56,,
{16}4/3h[16:3],,,2h[16:3],,,1h[16:2],,{8}8,{16}1,8/2,{8},3,
{16}4h[8:2],,,,8-4[16:1],,,8,,,5/3,,,2/3,,1h[16:3],
{8},8,7,{16}6,5,,7,84,,,5h[16:3],,,
{16}4h[8:2],,,,1-5[16:1],,,1,,,6,4,,8/4,,3h[16:5],
{8},2,1,{16}8,37,,4,63,,,2h[16:3],,,
{16}3h[8:2],,,,7-3[16:1],,,7,,,4/2,,,8/1,,7h[16:3],
{8},6,5,{16}4,4-8[16:3],,6h[16:7],,,,,,,
{16}5h[8:2],,,,4h[16:4],,,,3,,4,3h[16:1],,2,,,
{16}1h[16:3],{16},,2,,3,6,{16}4,7,2,5,3,8b,,,,
||{16}6/4,,3,,2h[16:2],,5,4/3,,3h[16:2],,4,5,,6,,
||{16}5/3,,2,,1h[16:2],,4,3/2,,2h[16:2],,1,8,,6/8,,
||{16}7/5,,4,,3h[16:2],,6,5/4,,4h[16:2],,5,6,,7,,
||{16}4/8,,7/3,,2/6,,1,2/5,,3h[16:3],,1,,8,7/2,,
{16}6/4,,3,,2h[16:2],,5,4h[16:2],,3h[16:2],,4,5h[16:2],,6,,
{16}5/3,,2,,1h[16:2],,4,3h[16:2],,2h[16:2],,1,8,,6/8,,
{16}7/5,,4,,3h[16:2],,6,5h[16:2],,4h[16:2],,5,6h[16:2],,7,,
{16}4/8,,7/3,,2/6,,1,2/5h[16:2],,3h[16:2],,1,,8,7/2,,
||{16}6/4,,3,,2h[16:2],,8,1/7,,6h[16:2],,5,4/7,,3,,
||{16}4/2,,1,,8h[16:2],,5,6/7,,7h[16:2],,8,1,,3/1,,
||{16}2/4,,5,,6h[16:2],,3,4/5,,5h[16:2],,4,3,,2,,
||{16}5/1,,2/6,,7/3,,8,7/4,,6h[16:3],,8,,1,2/7,6,
{16}6/4,,3,,2h[16:2],,8,7h[16:2],,6,,5,4h[16:2],,3,,
{16}4/2,,1,,8h[16:2],,5,4h[16:2],,7h[16:2],,8,1,,3/1,,
{16}2/4,,5,,6h[16:2],,2,3h[16:2],,4h[16:2],,1,8h[16:2],,7,,
{16}5/1,,2/6,,7/3,,8,7h[16:2]/4,,6h[16:2],,8,1,5,4,7,
{16}2,8,3,6,1b,,2,3h[8:1]/4,,4,2,6,5,,7/4,,
{16}2h[8:1]/5,,3,,1,,8,1/7h[8:1],,3,4,2,1,,8/3,,
{16}6h[8:1]/1,,7,,5,,4,5/3h[8:1],,7,2,5,1,,4/7,,
{16}6/1,,7/2,,8/3,,7,6/2h[8:1],,4,1,8,3,6,1,,
{16}3,,2/1,,1/8,,8,7h[8:1]/5,,6,8,1,5,4,3/6,,
{16}7h[8:1]/5,,8,,1,,2,1/3h[8:1],,7,5,6,2,1,3/8,,
{16}4h[8:1]/6,,3,,5,,6,5/7h[8:1],,3,4,1,6,5,7/4,,
{16}6/3,,5/2,,1/4,,1,5/2h[8:1],,6,4,7,2,5,3,8,
||{16}2,,1,,8,,8,7,1,6,7,8,7,6,5,,
||{16}8,,7,,6,,8,7,1,6,7,8,7,6,8,,
||{16}8,,7,,6,,8,7,1,6,7,8,7,6,5,,
||{16}8,,7,,6,,8,7,1,6,7,8,6,7,8,1,
{16}1<6[8:3],,,,,,6>3[8:3],,,,,,,,,,
{16}8-5[8:3],,,,,,2<7[8:3],,,,,,,,,,
{16}4-8[8:3],,,,,,5>2[8:3],,,,,,,,,,
{16}6>3[8:2],,,,,,1-5[8:2],,,,,,8b,,,,
{16}7,,5,5,6,,7/4,,3,4,3,,7/3h[8:1],,4,,
{16}2/5,,4,4,3,,2/8,,7,1,8,2,1,,8/3,,
{16}7-4[8:1],,7,,2-5[8:1],,2,,8-4[8:1],,8,,,,1-6[16:1],1,
{16},,8b,,,,,,,,,,,,2,,
{16}1h[16:4]/3,,,,8-4[16:1],,,4,,,5/3,,,2/4,,1h[16:3],
{8},2-7[12:1],3,{16}2-6[12:1],3,,8,2,,,1h[16:3],,,
{16}5h[8:2],,,,3-7[12:1],,,1,,,4,8,,6/1,,2h[16:3],
{8},3-7[12:1],1,{16}2-5[12:1],2,,8,8,,,1h[16:3],,,
{16}2-6[16:1],,,,4,,,4/5,,,6>3[12:1]/5,,,2,,1h[16:3],
{16},,8-3[12:1],,7,,8-4[12:1],7,,1,8,,,2h[16:3],,,
{16}3-7[12:1],,,,1>4[12:1],,,8/1,,,8,1<6[12:1]/5>2[12:1],,1/5,,,
{16},,8/4,,1/5,,2/6-2[12:1],2/6,,,4,4,,1/5,,,
{16}8h[16:4]/4,,,,7-3[16:1],,,5,,,4/2,,,1/3,,8h[16:3],
{8},7-2[12:1],6,{16}7-3[12:1],5,,1,7,,,8h[16:3],,,
{16}4h[8:2],,,,6-2[16:1],,,7,,,4,1,,6/8,,4h[16:3],
{8},2-6[12:1],8,{16}4-1[12:1],4,,5,5,,,8h[16:3],,,
{16}7-3[16:1],,,,5,,,5/4,,,3<6[12:1]/4,,,7,,8h[16:3],
{16},,1-6[12:1],,2,,1-5[12:1],2,,8,1,,,7h[16:3],,,
{16}6-2[12:1],,,,4<7[12:1],,,3/4,,,3,4>1[12:1]/8<5[12:1],,4/8,,,
{16},,,,1<6[8:1]/5b,,,,4-8[8:1],,,,,,,,
{16}2>5[16:9]/6h[16:2],,,6h[16:2],,,6h[16:2],,,6,,,7,,7,,
{16}1<6[16:9]/5h[16:2],,,5h[16:2],,,5h[16:2],,,5,,,2,,2,,
{16}1>4[16:9]/5h[16:2],,,5h[16:2],,,5h[16:2],,,5,,,7,,7,,
{16}1<6[16:9]/4h[16:2],,,4h[16:2],,,4h[16:2],,,4,,,1,,1,,
{16}1>4[16:9]/5h[16:2],,,5h[16:2],,,5h[16:2],,,5,,,7,,7,,
{16}1<6[16:9]/5h[16:2],,,5h[16:2],,,5h[16:2],,,5,,,2,,2,,
{16}1>4[16:9]/5h[16:2],,,5h[16:2],,,5h[16:2],,,5,,,7,,7,,
{16}1-5[16:9],,,,,,,,,,,,,,,,
E
