&title=fortuna on the Sixteenth night
&artist=十六夜のフォルトゥーナ OP
&first=0
&des=Tane
&freemsg=十六夜のフォルトゥーナ OP
&wholebpm=
&des_1=Tane
&des_2=Tane
&des_3=Tane
&des_4=Tane
&des_5=Tane
&lv_1=5
&lv_2=6
&lv_3=8
&lv_4=9
&lv_5=11+
&inote_1=(146){1},
{8},,,,
,,,,
{4}1b,,{8},,,,
{4}7b,,{8},,,,
{4}4b,,5b,,
{4}4,,2,,
{4}1-5[4:1],,,,
{4}2-4[4:1],,,,
{4}3,,6,,
{16}1,,,,
,,1,,
,,,,
8b,,,,
{4}4,,,,
{4}8,,,,
{4}1,,,,
{4}5,,,,
{4}5,,,,
{4}3,,,,
{4}8,,1,,
{16}2,,,,
,,2,,
,,,,
7b,,,,
{8}3,,,,
,,,,
{4}56,,,,
{8}6,,,,
,,,,
{4}43,,,,
{8}2,,,,
,,,,
{4}87,,,,
{8}7,,,,
,,,,
{4}12,,7b/8b,,
{4}1,,3,,
{4}5,,7,,
{4}2,,7,,
{2}2,7,
{4}4,,2,,
{4}8,,6,,
{4}3,,6,,
{2}3,6,
{4}3,,7,,
{2}7,3,
{4}7,,2,,
{2}6,2,
{4}6,,2,,
{2}2,6,
{2}2,4,
{2}7,5,
{4}4,4,5,5,
{4}2,2,7,7,
{4}1-5[4:1],,{8},,,,
{4}2-5[4:1],,{8},,,,
{4}2-6[4:1],,{8},,,,
{4}45,,27,,
{4}8-4[4:1],,{8},,,,
{4}7-4[4:1],,{8},,,,
{4}7,,2,,
{4}54,,72,,
{4}1-5[4:1],,,,
{4}2-5[4:1],,,,
{4}2-6[4:1],,,,
{4}45,,27,,
{4}8-4[4:1],,,,
{4}7-4[4:1],,,,
{4}7-3[4:1],,,,
{4}54,,72,,
{4}7-5[4:1],,{8},,,,
{4}1-3[4:1],,{8},,,,
{4}2,,7,,
{4}45,,27,,
{4}4-2[4:1],,{8},,,,
{4}6-8[4:1],,{8},,,,
{4}7,,2,,
{16}7b,,,,
,,2b,,
,,,,
1b/8b,,,,
{4}1bz5[2:8],,,
{1},,,,,,,,
&inote_2=(146){1},
{8},,,,
,,,,
{4}1b-4[2:1],,{8},,,,
{4}7b-5[2:1],,{8},,,,
{4}4b,,5b,,
{4}4,,2,,
{4}1-5[4:1],,,,
{4}2-4[4:1],,,,
{4}3,,6,,
{16}1,,,1,
,,1,,
,8b,,,
8b,,,,
{4}4,,,,
{4}8,,,,
{4}1,,,,
{4}5,,,,
{4}5,,,,
{4}3,,,,
{4}8,,1,,
{16}2,,,2,
,,2,,
,7b,,,
7b,,,,
{8}3,,,,
,,,,
{4}56,,,,
{8}6,,,,
,,,,
{4}43,,,,
{8}2,,,,
,,,,
{4}87,,,,
{8}7,,,,
,,,,
{4}12,,7b/8b,,
{4}1,,3,,
{4}5,,7,,
{4}2,,7,,
{2}2,7,
{4}4,,2,,
{4}8,,6,,
{4}3,,6,,
{2}3,6,
{4}3,,7,,
{2}7,3,
{4}7,,2,,
{2}6,2,
{4}6,,2,,
{2}2,6,
{2}2,4,
{2}7,5,
{4}4,4,5,5,
{4}2,2,7,7,
{4}1-5[8:1],,{8}7,,,,
{4}2-5[8:1],,{8}7,,,,
{4}2-6[8:1],,{8}7,,,,
{4}45,36,27,18,
{4}8-4[8:1],,{8}2,,,,
{4}7-4[8:1],,{8}2,,,,
{4}7,,2,,
{4}54,,72,,
{4}1-5[8:1],,7,,
{4}2-5[8:1],,7,,
{4}2-6[8:1],,7,,
{4}45,,27,,
{4}8-4[8:1],,2,,
{4}7-4[8:1],,2,,
{4}7-3[8:1],,2-6[8:1],,
{4}54,63,72,18,
{4}7-5[8:1],,{8}12,,,,
{4}1-3[8:1],,{8}56,,,,
{4}2,,7,,
{4}45,,27,,
{4}4-2[8:1],,{8}12,,,,
{4}6-8[8:1],,{8}12,,,,
{4}7,,2,,
{16}7b,,,7b,
,,2b,,
,2b,,,
1b/8b,,,,
{4}1bz5[2:8],,,
{1},,,,,,,,
&inote_3=(146){1},
{8},,,,
,,,,
{4}1b-4[2:1],,{8},,,,
{4}7b-5[2:1],,{8},,,,
{4}4b,,5b,,
{4}4,,2,,
{4}1-5[8:1],,8,,
{4}2-4[8:1],,7,,
{4}3,3,6,6,
{16}18,,,18,
,,18,,
,1b/8b,,,
8b/1b,,,,
{4}4,,2,,
{4}8,,6,,
{4}1,,3,,
{4}5,,7,,
{4}5,,7,,
{4}3,,1,,
{4}8,6,1,3,
{16}27,,,27,
,,27,,
,2b/7b,,,
2b/7b,,,,
{8}3,,,,
6,,,,
{4}56,,34,,
{8}6,,,,
3,,,,
{4}43,,65,,
{8}2,,,,
7,,,,
{4}87,,21,,
{8}7,,,,
2,,,,
{4}12,,7b/8b,,
{4}1,1,3,3,
{4}5,5,7,7,
{4}2,34,7,56,
{2}2^4[8:1],7^5[8:1],
{4}4,4,2,2,
{4}8,8,6,6,
{4}3,21,6,87,
{2}3^1[8:1],6^8[8:1],
{4}3,7,7,7,
{2}7-2[8:1],3-6[8:1],
{4}7,7,2,2,
{2}6-3[8:1],2-7[8:1],
{4}6,2,2,2,
{2}2-7[8:1],6-3[8:1],
{2}2,4h[4:1],
{2}7,5h[4:1],
{16}4,,,4,
,,5,,
,5,,,
36,,36,,
{16}1,,,1,
,,8,,
,8,,,
27,,27,,
{4}1-5[8:1],,{8}7,,7,,
{4}2-5[8:1],,{8}7,,7,,
{4}2-6[8:1],,{8}7,,7,,
{4}45,36,27,18,
{4}8-4[8:1],,{8}2,,2,,
{4}7-4[8:1],,{8}2,,2,,
{4}7,1,2,8,
{4}54,63,72,18,
{4}1-5[8:1],6,7,8,
{4}2-5[8:1],6,7,8,
{4}2-6[8:1],6,7,8,
{4}45,36,27,18,
{4}8-4[8:1],3,2,1,
{4}7-4[8:1],3,2,1,
{4}7-3[8:1],1,2-6[8:1],8,
{4}54,63,72,18,
{4}7-5[8:1],,{8}12,,12,,
{4}1-3[8:1],,{8}56,,56,,
{4}2,34,7,56,
{4}45,36,27,,
{4}4-2[8:1],,{8}12,,12,,
{4}6-8[8:1],,{8}12,,12,,
{4}7,65,2,43,
{16}7b,,,7b,
,,2b,,
,2b,,,
1b/8b,,,,
{4}1bz5[2:8],,,
{1},,,,,,,,
&inote_4=(146){1},
{8},,,,
,,,,
{4}1b-4[2:1],,{8},,,,
{4}7b-5[2:1],,{8},,,,
{4}4b,,5b,,
{4}4,3,2,1,
{4}1-5[8:1]/5,6,8,73,
{4}2-4[8:1]/5,6,7,26,
{16}1,,,2,
,,3,,
8,,,7,
,,6,,
{16}3b,,,2b,
,,1b,,
,1b/8b,,,
8b/1b,,,,
{4}4,3,2,,
{4}8,7,6,,
{4}1,2,3,4,
{4}5,6,7,,
{4}5,6,7,,
{4}3,2,1,,
{4}8,56,1,34,
{16}2b,,,7b,
,,2b,,
,2b/7b,,,
2b/7b,,,,
{8}3,,,,
6,,,,
{4}56,,34,,
{8}6,,,,
3,,,,
{4}43,,65,,
{8}2,,,,
7,,,,
{4}87,,21,,
{8}7,,,,
2,,,,
{4}12,,7b/8b,,
{4}1,12,3,34,
{4}5,56,7,78,
{4}2,34,7,56,
{2}2^4[8:1],7^5[8:1],
{4}4,43,2,21,
{4}8,87,6,65,
{4}3,21,6,87,
{2}3^1[8:1],6^8[8:1],
{4}3-6[2:1],7,7,7,
{2}7-2[8:1],3-6[8:1],
{4}7,7,2,2,
{2}6-3[8:1],2-7[8:1],
{4}6-3[2:1],2,2,2,
{2}2-7[8:1],6-3[8:1],
{2}2h[4:3],4h[4:1],
{2}7h[4:3],5h[4:1],
{16}4,,,4,
,,5,,
,5,,,
36,,36,,
{16}1,,,1,
,,8,,
,8,,,
27,,27,,
{4}1-5[8:1]/5,,{8}7,7,7,,
{4}2-5[8:1]/5,,{8}7,7,7,,
{4}2-6[8:1]/5,,{8}7,7,7,,
{4}45,36,27,18,
{4}8-4[8:1]/4,,{8}2,2,2,,
{4}7-4[8:1]/4,,{8}2,2,2,,
{4}7-3[8:1],1,2-6[8:1],8,
{4}54,63,72,18,
{4}1-5[8:1]/5,6,7,8,
{4}2-5[8:1]/5,6,7,8,
{4}2-6[8:1]/5,6,7,8,
{4}45,36,27,18,
{4}8-4[8:1]/4,3,2,1,
{4}7-4[8:1]/4,3,2,1,
{4}7-3[8:1],1,2-6[8:1],8,
{4}54,63,72,18,
{4}7-5[8:1],,{8}12,12,12,,
{4}1-3[8:1],,{8}56,56,56,,
{4}2,34,7,56,
{4}45,36,27,,
{4}4-2[8:1],,{8}12,12,12,,
{4}6-8[8:1],,{8}12,12,12,,
{4}7,65,2,43,
{16}7b,,,7b,
,,2b,,
,2b,,,
1b/8b,,,,
{4}1bz5[2:8],,,
{1},,,,,,,,
&inote_5=(146){1},
{8},,,,
,,,,
{4}1b-4[2:1],,{8},,,7,
{4}7b-5[2:1],,{8},,,3,
{4}3bV51[4:1],,6b-8[8:1],,
{4}4,3,{16}2,,,8,
1,,7,,
{8}1-3[8:1]/4^7[8:1],,14,,
{16}7-3[8:1],3,,2,
,,1,,
{8}1^4[8:1]/5-7[8:1],,15,,
{16}7-4[8:1],4,,3,
,,2,,
{16}34,,,13,
,,47,,
56,,,68,
,,52,,
{16}4b,5,4,6b,
3,6,2b,7,
2,8b,1,8,
1b,,,,
{16}7-5[8:1],,,4,
7,,3,,
1/5-7[8:1],,,,
1,,,,
{16}1-3[8:1],,,5,
1,,6,,
7/4-2[8:1],,,,
7,,,,
{16}8-6[8:1],,,4,
8,,3,,
2-4[8:1],,,5,
2,,6,,
{16}7-5[8:1],,,4,
7,,3,,
2/5-7[8:1],,,,
2,,2,,
{16}2-4[8:1],,,5,
2,,6,,
7/4-2[8:1],,,,
7,,,,
{16}7-5[8:1],,,3,
7,,2,,
5-7[8:1]/1,,,,
1,,,,
{16}1-3[8:1],,,5,
1,,6,,
7-5[8:1],,,4,
7,,3,,
{16}2b/4b,,,5b/7b,
,,3b/6b,,
,4b/5b,,,
1b/8b,,,,
{8}2,3,4,5,
6,,,,
{4}56,45,34,,
{8}7,6,5,4,
3,,,,
{4}2^7[4:1],7pp2[2:1],6,5,
{8}4,5,6,7,
8,,,8,
{8}1,2,3h[4:1],,
7,,,5,
{8}3h[8:3]/4,,,5,
5/6h[8:2],,5,5,
{8},4,4,,{16}3b/4b,,,1b/8b,
,,5b/6b,,
{16}6-8[8:1],,,,
2,,,,
2-5[8:1],8,,,
7,,,,
{16}7-3[8:1],5,7,,
1,,,,
3-1[8:1],,4,,
5,,,,
{8}5h[8:3],,,6,
4h[8:2],,5,6h[8:2],
{8},5,4,3,
12,,78,,
{16}7-5[8:1],,,,
3,,,,
3-8[8:1],5,,,
6,,,,
{16}7-3[8:1],8,7,,
1,,,,
24,,,,
,,3,4,
{8}3^5[8:1],,6,,
6^4[8:1],,3,,
{16}34,,,,
56,,,,
3,4,,6,
5,,36,,
{4}7<3[2:1],3,2,1,
{4}8pp3[2:1],4,5,6,
{4}7^4[8:1],2,2^5[8:1],7,
{4}56,34,{16}6,5,,3,
4,,36,,
{4}2>6[2:1],6,7,8,
{4}1qq6[2:1],5,4,3,
{4}2^7[8:1],5,6-4[8:1],,
{4}7^2[8:1],4,3-5[8:1],,
{16}65,,,34,
,,57,,
,24,,,
68,,13,,
{16}2,8,2,8,
3,7,3,7,
4,6,4,6,
3,5,2,4,
{8}1^3[8:1],5,1,7,
{16}1-5[8:1],8,,7,
,,6,,
{8}4^2[8:1],5,4,7,
{16}1-5[8:1],8,,7,
,,6,,
{8}2^4[8:1],5,2,6,
{16}4-2[8:1],7,,6,
,,5,,
{16}3/5,,,4/7,
,,1/6,,
,,27,,
18,,36,,
{8}8^6[8:1],4,8,2,
{16}8-4[8:1],1,,2,
,,3,,
{8}5^7[8:1],4,5,2,
{16}8-4[8:1],1,,2,
,,3,,
{4}7-5[8:1]/4-8[8:1],4-2[8:1],1-5[8:1],8-6[8:1],
{16}5,,4,,
3,,2,,
1,8,1,8,
2,7,2,7,
{8}1^3[8:1],5,1-5[8:1],7,
{16}1-4[8:1],8,,7,
,,6,,
{8}2-6[8:1],5,2^4[8:1],7,
{16}2-5[8:1],8,,7,
,,6,,
{8}2^4[8:1],5,2,6,
{16}2^7[8:1],7,,6,
,,5,,
{16}64,,,52,
,,83,,
,,36,,
81,,45,,
{8}8^6[8:1],4,8-4[8:1],2,
{16}8-5[8:1],1,,2,
,,3,,
{8}7-3[8:1],4,7^5[8:1],2,
{16}7-4[8:1],1,,2,
,,3,,
{16}15,,,78,
,,56,,
48,,,12,
,,34,,
{16}5b,4,5,3b,
6,3,7b,2,
7,1b,8,1,
8b,,,,
{16}7,,,3,
4,,2,,
5-7[8:1],,3,,
2,,3,,
{16}8,,,4,
6,,5,,
6,,7,,
6,,7,,
{16}8^5[8:1],,5,4,
3,,2,,
1^4[8:1],,4,5,
6,,7,,
{16}8-4[8:1],,4,3,
2,,1,,
5-1[8:1],,,,
2,,2,,
{16}2-4[8:1],,,1,
2,,8,,
4-8[8:1],,6,,
7,,6,,
{16}1-5[8:1],,,5,
1,,6,,
7-5[8:1],,3,,
4,,3,,
{16}1,,14,25,
36,,7,,
8,,85,74,
63,,2,,
{16}3b,4,3,6b,
5,6,2b,1,
2,7b,8,7,
1b-5[8:1],8,1,8,
{4}1bz5[2:8]*s5[2:8],,,
{1},,,,,,,,
