&title=新作のしあわせはこちら!
&artist=チノ(水瀬いのり)
&first=0
&des=もふもふウサギ
&lv_5=12+
&inote_1=
&inote_2=
&inote_3=
&inote_4=
&inote_5=(175){1},{4}
E7,E7,{16}4x,5x,4x,5x,{4}4x,
{4}
2,2^5[8:3],,,7,7^4[8:3],,,
2,2V46[8:3],,,7,7V51[8:3],B4,B2,
2x/8x,5,1x/7x,4,3x/8x,5,1x/6x,4,
{8}
18,18,27,27,36,36,45,45,
B2/C/B7,,,7,7^1[4:1],1,1v4[16:5],,
,,,,{16}1,8,1,,B2/Cf/B7,,,,
{4}
3hx[8:1]/4hx[8:1],3h[8:1]/5h[8:1],
3h[8:1]/4h[8:1],3h[8:1]/5h[8:1],
{8}2,2V48[16:5],6,6,,B7,B7,,
{4}
6h[8:1]/5h[8:1],6h[8:1]/4h[8:1],
6h[8:1]/5h[8:1],6h[8:1]/4h[8:1],
{8}7,7V51[16:5],3,3,,B2,B2,,
{4}
4h[8:1]/5h[8:1],3h[8:1]/6h[8:1],
4h[8:1]/5h[8:1],3h[8:1]/6h[8:1],
{8}2,2V84[16:5],5,5,,B7,B7,,
4,4,53,53,26,26,7<8[16:11]/1>8[16:11],71,
{1},
{8}
4h[4:1]/6,,2-7[8:1],,3-6[8:1],,8,8,
,1,7,2,7,3,7p2[16:5],7,
,,,B1,5,B2,7h[8:5],E8,,E8,,5V31[4:1]*V71[4:1],,,,,
46,,2-7[8:1]/5,,6-3[8:1],,1,1,
,8,2,7,2,6,2q7[16:5],2,
,,,8,4,4,7,7h[2:1],,5,5pp5[8:3]*qq5[8:3],5,,,,,
5hx[4:1]/3x,,7-2[8:1],,6-3[8:1],,1,1,
,8,3,7,3,6,3>7[16:5],3,
,,,E5,1,B6,3h[8:5],B1,,B1,,4V68[4:1]*V28[4:1],,,,,
53,,7-2[8:1]/4,,3-6[8:1],,8,8,
,1,6,2,6,3,6,6,{16}4,5,4,5,{8}4b,,5,1,,
E6/E4/Cf,,E3/E7/Cf,,E8/E2/Cf,,,,
2,2q5[2:1],,,8,8,,,7,7p4[2:1],,,1,1,,,,
34,,2h[2:1]/5,,1,8,7,3pp8[8:5]/6qq1[8:5],{4},,,,
45,3h[4:1],2h[4:1],1h[4:1],{8}8,8-4[8:1],,3,,
12,8,7,4-8[8:1]/6h[4:1],,,7,,
21,3,4,7h[4:1]/5h[4:1],,,7/5s1[8:3],,,,,
6pp5[2:1],,,2,2,,C,,3qq4[2:1],,,7,7,,C,,
{2}
3h[4:1]/7^4[8:1],6h[4:1]/2^5[8:1],
3h[4:1]/8-4[8:1],6h[4:1]/1-5[8:1],
{4}
7^2[4:1],2^5[4:1],5^8[4:1],8>4[4:1],
4<8[4:1],8>4[4:1],4<8[4:1],8,
{8}1,2,3,4,5,6,7,8,
{4}1w5[4:1],,,2b-4[8:1]/7b,
1-5[8:1],3pp8[8:3],{8}7,7,,7h[8:3],,,8,6,5,6,45,3,
7-4[8:1]/2-5[8:1],,{24}2/7/E3/E7,B3/B6,,{8},18,
8-4[8:1]/1-5[8:1],,{24}8b/1b/B8/B1,Cf,,{8},E3,E2,E1,E8,E7,E6,,
{4}
2^5[4:1],5^8[4:1],8^3[4:1],3,
{8}
7-3[8:1],,7,{4}4-1[8:1],4<2[8:3],{8}4x,2x,,4>7[4:1],,4x/6x,,5,,
{16}
3,4,3,,6,5,6,,3,4,3,,{4}7b-5[8:1]/2b,
8-4[8:1],6qq1[8:3],{8}2,2,,2h[8:3],,,1,3,4,3,54,6,
2-5[8:1]/7-4[8:1],,{24}2/7/E3/E7,B3/B6,,{8},18,
1-5[8:1]/8-4[8:1],,{24}8b/1b/B8/B1,Cf,,{8},E6,E7,E8,E1,E2,E3,,
{4}
7^4[4:1],4^1[4:1],1^6[4:1],6,
{8}
2-6[8:1],,2,5-8[8:1]*-2[8:1],,5,,,18,18,27,27,36,36,45,45,
2V48[8:3]/7V51[8:3],,,,,,E3/E7/Cf,,
{4}
6hx[8:1]/5hx[8:1],3h[8:1]/5h[8:1],
6h[8:1]/5h[8:1],3h[8:1]/5h[8:1],
{8}7,7V51[16:5],3,3,,B2/B3,B2/B3,,
{4}
3h[8:1]/4h[8:1],4h[8:1]/6h[8:1],
3h[8:1]/4h[8:1],4h[8:1]/6h[8:1],
{8}2,2V48[16:5],6,6,,B6/B7,B6/B7,,
{4}
3h[8:1]/8h[8:1],1h[8:1]/6h[8:1],
3h[8:1]/8h[8:1],1h[8:1]/6h[8:1],
{8}7,7V15[16:5],4,4,,B2/B3,B2/B3,,
5,5,46,46,73,73,2>1[16:11]/8<1[16:11],28,
{1},
{8}
6xpp5[2:1],,,2,2,,C/B1/B2,,3xqq4[2:1],,,7,7,,C/B7/B8,,
7xqq8[2:1],,,3,3,,C/B3/B4,,2xpp1[2:1],,,6,6,,C/B6/B5,,
{4}
81,7,6,5,81,2,3,4,
{8}
5,5,3,3,7,7,{16}1,6,1,6,
{4}
8x-6[4:1],6xqq5[8:3],7x-1[8:1],,
{64}8xqq7[16:5],3x>7[16:5],,,{16},,,{4},,2b-6[8:1]/7b,
8-4[8:1],3qq5[8:3],{8}6,6,,7h[8:3],,,8,6,5,7,48,3,
7v4[8:1]/2v5[8:1],,{24}2/7/B2/B7,C,,{8},18,
81,,{48}E1,E2/E8,E3/E7/Cf,E4/E6,E5,,{8},E4,E3,E2,E8,E7,E6,,
{4}
1V35[4:1],5V71[4:1],1V35[4:1],5,
{8}
7-3[8:1],,7,4-1[8:1]*-7[8:1],,4,,,81,81,72,72,63,63,54,54,
7V51[8:3]/2V48[8:3],,,,,,E2/E8/Cf/E4/E6,,
{4}
3hx[8:1]/4hx[8:1],1h[8:1]/7h[8:1],
4h[8:1]/5h[8:1],1h[8:1]/3h[8:1],
{8}6,6qq4[4:1],4,4q8[4:1],,E2/B2/B1,E2/B2/B1,,
{4}
6h[8:1]/5h[8:1],8h[8:1]/2h[8:1],
5h[8:1]/4h[8:1],6h[8:1]/8h[8:1],
{8}3,3pp5[4:1],5,5p1[4:1],,B7/E8/B8,B7/E8/B8,,
{4}
3h[8:1]/7h[8:1],5h[8:1]/1h[8:1],
3h[8:1]/7h[8:1],5h[8:1]/1h[8:1],
{8}6,6pp8[4:1],8,8p4[4:1],,E2/B2/B1,E2/B2/B1,,
4,4,53,53,26,26,71,71,
{16}8x,7x,6x,5x,4x,3x,2hx[8:5],,{4},,
{8}
7^4[4:1],,,1,1-5[4:1],,,,
7^4[4:1],,,1,1h[4:1],,B7/Ch[4:1],,
2^5[4:1],,,8,8-4[4:1],,,,
2^5[4:1],,,8,8h[4:1],,B2/Ch[4:1],,
6^1[4:1],,,4,4-8[4:1],,,,
6^1[4:1],,,4,4h[4:1],,B5/Ch[4:1],,
4x,,6x/3x,,7x/2x,,8x/1x,,
5h[4:1]/7h[4:1],,,2h[4:1]/4h[4:1],,,
Ch[8:11]/8>8[1:2],
{1},,
