&title=Rumble
&artist=Skrillex/Fred again../Flowdan
&first=0
&des=Re:blu[M]
&lv_5=13+?
&inote_5=(140)
{2},6x,,6x,,6x,,
{8},,8x-4-8b[4:14],,
{32}8b,B8,C,B4,
{8}A4,,,,,
{16}A6,D6,A5,D5,A4,D4,A3,,{8},,,,
{16}A6,D6,A5,D5,A4,D4,A3,,{8},,,,
{16}A6,D6,A5,D5,A4,D4,A3,,{8},,,,
{8}8x-4-8b[4:14],,
{32}8b,B8,C,B4,
{8}A4,,,,,
{16}A6,D6,A5,D5,A4,D4,A3,,{8},,,,
{16}A6,D6,A5,D5,A4,D4,A3,,{8},,,,
{16}A6,D6,A5,D5,A4,D4,A3,,{8},,,,
8x-4b[8:1],,8b/B8f,,
{16}6,,6,,6/2xb,,6,,6,,
{8}6,6,6,6,6,
{16}6/3x,,6,4,6,,5/6,,
{8}4/6,6,6,6,6/2x,6,6,6,
{32}6,B2,B3,B4,
{8}6,6,6,
{16}6/3x,,6,4,6,,5/6,,
{8}4/6,6,6,6,6/2bx,6,6,6,6,6,6,6,
{16}6/3x,,6,4,6,,5/6,,
{8}6/4,6,6,6,6/2x,6,6,6,
{32}6,B2,B3,B4,
{8}6,6,6,
{16}6/3x,,6,4,6,,5/6,,
{8}6xh[4:15],,Ch[8:3],,,,
{16}E5,E4,E3,E2,E1,E8,,,
{8}Ch[8:3],,,,
{16}E5,E4,E3,E2,E1,E8,,,
{8}Ch[8:3],,,,
{16}E5,E4,E3,E2,E1,E8,,,
{8}Ch[8:3],,,,1b,,
{8}6xh[8:1],,Ch[8:3]/6,6,6x,6,
{16}E5/6,E4,E3/6,E2,E1/6,E8,6,,
{8}6/Ch[8:3],6,6x,6,
{16}E5/6,E4,E3/6,E2,E1/6,E8,6,,
{8}6/Ch[8:3],6,6x,6,
{16}E5/6,E4,E3/6,E2,E1/6h[8:8],E8,,,
{8},,,,8x-4-8-4-8-4-8-4-8b[1:8],,
{32}8b,B8,C,B4,
{8}A4,
{16}7,6,7,6,7bx,6,7,6,7,6,7,6,
7,6,7,6,7,6,7,6,7x,6,7,6x,7,6,7x,6,
{4}7bh[8:1],
{16}7,5,7,5,7bx,5,7,5,7,5,7,5,
7,5,7,5,7,5,7,5,7x,5,7,5x,7,5,7x,5,
{4}7bh[8:1],
{16}7,3,7,3,7bx,3,7,3,7,3,7,3,
7,3,7,3,7,3,7,3,7x,3,7,3x,7,3,7x,3,
{4}7bh[8:1],
{16}7,2,7,2,7bx,2,7,2,7,2,7,2,
7,2,7,2,7,2,7,2,7,2,7,2,,,,,
{16}3h[8:1],,,3,,5,4,,6h[8:1],,,6,,4,5,,3h[8:1],,,3,,5,4,,6h[8:1],,,6,,4,5,,
2h[8:1],,,2,,5,4,,7h[8:1],,,7,,4,5,,2h[8:1],,,2,,5,4,,7h[8:1],,,7,,4,5,,
2h[8:1],,,2,,6,4,,7h[8:1],,,7,,3,5,,2h[8:1],,,2,,6,4,,7h[8:1],,,7,,3,5,,
1h[8:1],,,1,,5,3,,8h[8:1],,,8,,4,6,,
{2}1xh[8:6],8xh[4:1],
{48}1b/8b,7/2,6/3,5h[16:3]/4h[16:3],,,
{8},,,
{16}6/2xb,,6,,6,,
{8}6,6,6,6,6,
{16}6/3x,,6,4,6,,5/6,,
{8}4/6,6,6,6,6/2x,6,6,6,
{32}6,B2,B3,B4,
{8}6,6,6,
{16}6/3x,,6,4,6,,5/6,,
{8}4/6,6,6,6,6/2bx,6,6,6,6,6,6,6,
{16}6/3x,,6,4,6,,5/6,,
{8}6/4,6,6,6,6/2x,6,6,6,
{32}6,B2,B3,B4,
{8}6,6,6,
{16}6/3x,,6,4,6,,5/6,,
{8}6xh[4:15],,Ch[8:3],,,,
{16}E5,E4,E3,E2,E1,E8,,,
{8}Ch[8:3],,,,
{16}E5,E4,E3,E2,E1,E8,,,
{8}Ch[8:3],,,,
{16}E5,E4,E3,E2,E1,E8,,,
{8}Ch[8:3],,,,1b,,
{8}6xh[8:1],,Ch[8:3]/6,6,6x,6,
{16}E5/6,E4,E3/6,E2,E1/6,E8,6,,
{8}6/Ch[8:3],6,6x,6,
{16}E5/6,E4,E3/6,E2,E1/6,E8,6,,
{8}6/Ch[8:3],6,6x,6,
{16}E5/6,E4,E3/6,E2,E1/6h[8:6],E8,,,
{8},,,,1b,,
{16}8-4[8:1],,1,,8x,,1,7,8-4b[8:1],,7,,8x,,7,1,
8-4[8:1],,2,,8x,,2,6,8-4b[8:1],,6,,8x,,6,2,
8-4[8:1],,3,,8x,,3,5,8-4b[8:1],,5,,8x,,5,3,
8h[384:1],4,6h[384:1],2,4h[384:1],8,6h[384:1],2,
8h[384:1],4,6h[384:1],2,4h[384:1],8,6h[384:1],2,
8-4[8:1],,3,3,8x,,3,,8-4b[8:1],,5,5,8x,,5,,
8-4[8:1],,2,2,8x,,2,,8-4b[8:1],,6,6,8x,,6,,
8-4[8:1],,1,1,8x,,1,,8-4b[8:1],,7,7,8x,,7,,
{8}4xh[1:1],8bx,2bx,6bx,
{16}8bx,,,2bx,,,6bx,,
{8}8xb-4b[8:14],,
{16}6h[384:1],5h[384:1],7h[384:1],2h[384:1],3h[384:1],1h[384:1],
6h[384:1],5h[384:1],7h[384:1],2h[384:1],3h[384:1],1h[384:1],
6h[384:1],5h[384:1],7h[384:1],2h[384:1],3h[384:1],1h[384:1],
6h[384:1],5h[384:1],7h[384:1],2h[384:1],3h[384:1],1h[384:1],
{8}8x-4-8-4-8-4-8b[1:6],,
{32}8b,B8,C,B4,
{8}A4,
{16}7,3,5,1,7bx,3,5,1,7,3,5,1,
7,3,5,1,7,3,5,1,7x,3,5,1x,7,3,5x,1,
{4}7bh[8:1],
{16}3,7,1,5,3bx,7,1,5,3,7,1,5,
3,7,1,5,3,7,1,5,3x,7,1,5x,3,7,1x,5,
{4}3bh[8:1],
{16}5,1,7,3,5bx,1,7,3,5,1,7,3,
5,1,7,3,5,1,7,3,5,1,7,3,5h[4:1],,,,
{2},,A7/A6,A2/A3,C,,E7/E6,E4/E3,C,,B7/B6,B2/B3,C,
{16},,,,,,,,
{24}E8,B8,B1,
{4}E2,
{8},C,,,,E1/E8/E7/E6/E5/E4,,,,
