&title=Lament Rain
&artist=Ashrount vs. D D Dice
&first=0.05
&des=魔曲之魂
&lv_6=14+
&inote_6=(200){1},
{32}5b/4b,3x/6x,2x/7x,1x/8x-5^3[4:5],,,,,
{4},,,
{8}1h[8:1],,,,2,,,,
{8}3-1v8-6[4:6],,,,,,,,7h[8:1],,,,5,,,,
{8}4v7pp8-5[16:22],,,,,,,,,,,,6x,,6hx[8:3],,
{8}5-8-4-1[8:9],5,,,,,,,7h[8:2],,,,
{16}7x,6,5,4,1x,2,3,4,
{32}8b,B8f,C1,B4,{8}A4,,6b/1b,,7,7<7[16:14],,2h[8:4],,,,,,,,
{32}1b,B1f,C8,B5,{8}A5,,3b/8b,,2,2>2[16:14],,7h[8:4],,,,,,,,
{8}8x^2v3^5[8:4],,8x,,7x,,7x,,3x-6-2^7[8:4]/6x,,6x,,5x,
,5x,,8x-5[16:3]/4x,4x,3x,3x,
{16}2,6x,2,6x,
{24}2x,3,4,6x,7,8,
{4}5bx>1s5[4:2]/1bx<5s1[4:2],,
{4},,
{8},8x-4[8:1],A3f/B3/E3/E4,,,6h[4:1]/B1/E2/E1/A1f,,,3h[4:1]/B7/E7/E8/A7f,,,5h[4:1]/B2/E3/E2/A2f,,,1b/8b,,
{8}6/4,4,7/3,3,{16}2x/8x,3,4,5,8x,7,6,5,
{4}4h[8:3]/1h[8:6],,{8}8h[8:2],,,,
{64}D2f/D8f,A2/A7,D3/D7,A3/A6,D4/D6,A4/A5,D5,,{8},
{16},,{24}7,8,7,
{16}8,,6v3b[8:1],,1,,8-2-4[4:1],,,,
{8}4xq5[32:10],,6,7x,8x,1x^6[8:1]*^4[8:1],,1b,,,
{24}6,5,6,{16}5,,7-5-3[8:2],,4,,3-1-7[8:2],,,,
{8}2h[32:6],,{16}3x,4x,5x-1[32:4]b,,,,7x-3[8:1],,,,
{16}A7,,,,{32}4x,5x,6x,7x,{24}1,8x,1,
{8}8x,2-4-7[4:1],8,7-5-2[32:8],,8,,1,8h[8:3],,4,3,
{8}2qq3[2:1],,,,
{16}6qq7[2:1],,,,,,,,1h[32:24],,,,,,,,8h[32:8],,,,,,,,
{64}D2f/D8f,A2/A7,D3/D7,A3/A6,D4/D6,A4/A5,D5,,{8},,
{24}2,1,2,
{16}1,,3v6b[8:1],,8,,1-7-5[4:1],,,,
{8}5xp4[32:10],,3,2x,1x,8x^3[8:1]*^5[8:1],,8b,,,
{24}3,4,3,{16}4,,2-4-6[8:2],,5,,6-8-2[32:8],,,,
{8}7h[32:6],,{16}6x,5x,4x-8[32:3]b,,,,2,,,,
{8}3h[4:1]/5,,6,4/7h[4:1],,3,2h[4:1]/5,,6,8h[4:1]/4,,2,8-4[8:1]/3-6[8:1],,8/3,,
{16}2,1,2,1,5,6,5,6,1,7,1,7,3,5,3,5,
{32}3,2,1,8,7,6,5,4,3p5b[7:1],2,1,8,7,6,5,4,
{32}3bx,,,,,,,,8bxq4b[8:1]/4bxq8b[8:1],7x/3x,6x/2x,5x/1x,,,,,
{32},C7f/B2/B6/E5/E1,
{16},,,,,2-5[8:1],1,3,1,2,,1v4[8:1],8,7,6,1,,
{32}6q4b[5:1],,3,,5,,2,,6b,,,,,,,,,,,,
{32}5bxp1b[8:1]/1bxp5b[8:1],2x/6x,3x/7x,4x/8x,,,,,,C2f/B7/E1/B3/E5,
{16},,,,,7-4[8:1],8,6,8,7,,8v5[8:1],1,2,3,8,,3p5b[5:1],6,4,7,3b,,,,,,
{16}4hbx[6:1]/8bx^5[6:1],,,,
{16}3b,2,1,8,4,3,2,1,8hx[8:1]/4^1[6:1],,,,
{16}8x,7x,6x,5,4xh[4:1]/8hx[4:1],,,,,,1/5,,
{24}1v3[7:1]/5v7[7:1],,,,,,
{8},,
{8}4^1[8:1],,4/6,7<4[8:1],,7/1-5[8:1],,1,,
{24}6,4,6,3,5,3,
{8},8h[8:1],2h[8:1],4h[8:1],6h[8:1],8bv5[8:1]*p4[8:1],,,,
{16}3hx[16:1]/6hx[16:1],,,3hx[16:1]/6hx[16:1],,,3hx[32:1]/6hx[32:1],,
{16}3hx[32:1]/6hx[32:1],
{16},2hx[32:1]/7hx[32:1],,2hx[32:1]/7hx[32:1],,2hx[32:1]/7hx[32:1],,
{12}4xh[48:1]/5hx[48:1],3hx[48:1]/6hx[48:1],2xh[48:1]/7hx[48:1],
{24}1x,8x,1x,8x,1x,8x,1x-5b[8:1],,,,,,1bx-7-3-5[32:14]/Cf,,,,,,,,,,,,,,,,,,
{16}2h[8:1],,,6h[8:1]/4h[8:1],,,8/7,,1/2>5[8:1],,,,8-4[8:1]/2,,,,8b,,,,
{16}3,5,2,5,1-3[8:1],5,8,5,1b-5[8:1],,6,7,8/1b,,,,
{16}6,4,7,4,8-6[8:1],4,1,4,8b-4[8:1],,3,2,1/8b,,,,
{16}1,5,2,6,3-1[8:1],7,4,8,3b-5-1[6:1],,7,6,5/3b,,,,
{16}7,8x,6,1,5,2,4>6b[16:28],3,4bx,5x,6x,7x,
{8}8bx,8x,7,7,6,6,5,5,4,4,5,5,5-1[8:1],5,C1,,
{16}4,4,8,8,2,2,6,6,1,1,5,5,3,3,7,7,
{32}1,2,3,4,8,7,6,5,E2,B2,B3,E4,E8,B7,B6,E6,
{40}A1/D2,A2/D3,A3/D4,A4/D5,A5/D6,A6/D7,A7/D8,A8/D1,,,
{4},
{32}7b,6,5,4,,,2hbx[8:2],,,,,,8b,7x,6x,5x,4x,3x,2x,1x,8hx[8:1],,,,
{32}2b,3,4,5,,,7hbx[4:1],,,,,,1b,2,3,4q8[6:1]*p8[6:1],,,6hbx[16:1],,,,,,
{32}C1,,,,,,,,,,,,,,,,
{32}2b,3,4,5,,,7hbx[8:2],,,,,,1b,2x,3x,4x,5x,6x,7x,8x,1hx[8:1],,,,
{32}7b,6,5,4,,,2hbx[4:1],,,,,,8b,7,6,5p1[6:1]*q1[6:1],,,3hbx[16:1],,,,,,
{32}C1,,,,,,,,,,,,,,,,
{32}7b,E7,E6,A5,,,2hbx[8:2],,,,,,
{32}4b,B4,C1,B8,A8,,,,,,,,
{32}3b,E4,E5,A5,,,7hbx[4:1],,,,,,6b,B6,C7,B2,A2,,8hbx[16:1],,,,,,
{32}1b,E1/E2,B8/B2,B7/B3,B6/B4,E6/E5,A5,,,,,,,,,,
{32}8bx,,8hx[8:1],,,,3b,D3,A2,D2,A1,,7b,D7,A6,D6,A5,,,,
{16}8,4,8-4b[16:1],,,,,,,
{32}6b,E7,B7,B8,E1,,2b,E3,B3,B4,E5,,
{80}D7/E7,A6,D6,A5,D5,A4,D4,A3,D3,A2,D2,A1,D1,A8,D8,
{32}7bx/3bx,,,,,,,,
{16}5b/3b,,,,6/4h[8:1],,7,,8qq4[32:12],,
{16}3,,2,,1-3[8:1],,,,1,,5x,,5x-2[8:1]*-8[8:1],,,,5,,,,,,
{16}1b/7b,,,,2/8h[8:1],,3,,4qq8[32:12],,
{16}7,,6,,5-7[8:1],,,,5,,1x,,1x-6[8:1]*-4[8:1],,,,1,,,,,,
{8}3/5,5,6/2,6,7/1,7,8/6,8,1/5,1,2/4,2,3/1,3,4/8,4,7/3,7/3,2/6,2/6,
{16}1,2,3,4,6,7,8,1,
{12}3h,4h,2h,6h,8h,7h,3h,1h,2h,6h,5h,7h,
{4}4qq1[4:4]/8qq5[4:4],,,,,,C,,7<7[8:13],,,,
{4}E2/B1,,,,1pp5[8:13],,,,E8/A7,,,,
{4}6pp1[8:13],,,,A5/D5,,,,
{4}2>6[4:4],,A7,,6<2[4:4],,A5,,5<1b[4:4],,A2,,1>5b[4:4],,A8,,
{4}8-2-4[4:4],,A6,,4-6-8[4:4],,A2,,2-4-6b[4:4],,A1,,2h[4:1],
{8},,5b/7b,5b/7b,,,4/8,,3/6,3,3/8,3,3/4,3,
{16}2,1,2,,7/4,,7,,7/2,,7,,7/5,,7,,8,1,8,,2/5,,2,,2/7,,2,,2/3,,2,,
{32}8x,7,6,5,3,,,,3,,,,8x,1,2,3,4,5,,,C1f,,,,,,,,,,,,
{8}3/4,2,5/6,7,2/4,1,5/7,8,
{16}3,4,2,5,1,6,8,7,5,6,4,7,
{32}3x-7[40#32:1],2x,1x,8x,7x,6x,5x,4x,3xhx[4:3],,,,,,,,,,,,,,,,,,,,
{8},,,3b-7b[7210#32:1],,,1h[16:6]/5,,6,7,8,
{64}8b/2b,D3f,A3,D4,A4,D5,A5,,{16},,{16}8-4[7:1],1,7,1,8b,,1-5[7:1],2,3x/5x,,
{16}6bxq4b[4:1],,,,4bx>6b[3:1],,,,5,,5,,4x,,3,,2,,
{64}1b/7b,D7,A6,D6,A5,D5,A4,,{16},,{16}1-5[7:1],8,2,8,1b,,8-4[7:1],7,6x/4x,,
{16}3bxq5b[4:1],,,,5bx<3b[32:8],,,,,,,,5x,,6,,7,,
{16}8b/4b,,,,2-6[8:1]/7-1[8:1],,3,,7b-5-3[4:1]/2,,,,7x/3x-7[32:5],,2,,
{16}1bw5[7:1],,,,1b,,,,2bx-4-8[4:1]/7x,,1,,5b/2,,6,,
{32}7hb[6:1],,,,,,1b,2,3,4,,,7b,6,5,4,2hb[6:1],,,,,,8b,7,6,5,,,2b,3,4,5,
{16}8v3b[7:1],1,7-4b[7:1],,8bx,,7bx,,
{8},3,2,1,
{64}1b/7b,D7f,A6,D6,A5,D5,A4,,{16},,{16}2v5[7:1],1,3,8,2b,,8-4[7:1],7,6x/4x,,
{16}3bxp5b[4:1],,,,5bx^7^1^3b[32:11],,,,4,,4,,5x,,6,,7,,
{64}8b/2b,D3,A3,D4,A4,D5,A5,,{16},,{16}6xv1[7:1],5x,7x,4x,6bx,,4-8[7:1],3,2x/8x,,
{16}7bxq1b[4:1],,,,1bx^3^5^7b[32:8],,,,,,,,1x,,2,,3,,
{16}4bh[16:3]/8b,,,,6,4,5,3,{24}1h,2h,8h,{16}1h,,6bx-1[8:1],,5,,
{16}6b/4b,,,,3,5,4,6,{24}8h,7h,1h,{16}8h,,3bx-8[8:1],,4,,
{16}3b/5b,,,,{12}7,1,5,
{24}3h,4h,3h,,{12}6,{16}8b-4[8:1],,1,,
{16}2b/8b,,2,,1,5x,8,5x,{24}7x,6x,5x,4x,3x,2x,{32}1x/8x,7x,6x,5x,4x,3x,2x,1x,
{128}8bxqq7^2[8:11],4bxqq3^6b[8:11],,,,,,,,,,,,,,,{16},,{1},{4},,
{8}C1,5xqq6[8:4],,,,,1xqq2[8:4],,,,5hx[4:3],,,,4hx[4:1],,,,
{16}7/8,,3,4,2,,8/1,,4,5,4,,2/1,,6,5,
{16}7,,8/1h[8:1],,6,3,8-5[8:1],5,1-4b[8:1],2,8,,
{32}1bx,,,,{16}6x,5x,7x,,1/8,,5,4,5,,7/8,,3,4,
{16}2,,8/1,,6/5,,4/3-8[8:1],,7-4b[8:1]/1,,5/3,,
{32}7bx,,,,{16}2x,1x,3x,,5/4,,1,8,1,,3/4,,7,8,
{16}6,,2,1,4,7,3,8,
{24}5,6,5,6,5,,{16}4xv1[16:1]/7x,,3,5,4,,{24}8,2,8,2,,,4,5,4,
{24}5,,,7,1,7,1^4[16:1],,,{16}2,8,1,,7-4[16:1],5x,6,8,7,,
{16}1b,3x,2,8,4h[8:1],,7b,5,6,8,4h[32:4],,3b,5,1,7,
{32}2b,3,4,5,8b,7,6,5,1b,2,3,4,7b,6,5,4,{32}1b,8,7,6,5,4,3,2,
{24}7b-5-3-1-7^6^5^4^3^2^1^8^7[1:4],8h,6h,2h,1h,3h,
{1}C1f,,,,
{8}6h[4:16],,,,,,,,
{32}E8,B8,B1,,{8},,,,,,,{32}B3,B4,E5,,{8},,,,,,,
{32}7x,8x,1x,,{8},,,,,,,
{32}3x,4x,5x,6x-3[1:2],
{16},,,,,,
{1},,,
