&title=ステップ!
&artist=本田未央
&first=1.27
&des=Fri-ed chicken
&clock_count=4
&lv_5=13+
&inote_5=(106){4},{12},,,4/5,4h[8:1]/5h[8:1],{24},,3,4,5,6,,,{8}2-5[8:1],
{24}1/3,,8,{8}2,6,7-4[8:1],8/1,7/3-7[8:1],2q5[4:1],
{4}3/1,{8}6<1[8:1],7,6/2V48[6:1],4,{4}2/5,
{8}7-4[8:1],{24}8/6,,1,{8}7,2,3-8[8:1],2/1,3/7V51[16:3],5,
7/1,{16}2V84[16:3],3,,,{8}2/4,{2}5pp1[4:1],
{16}3bp8[4:1],,,,,,,5>2[0.5603##0.2415],{8}6,{16}7v4[0.5603##0.1943],8,,,{8}1/7,
2,3V52[6:1],{12}2/5,3/4,{24},7-4[12:1],,,,1-5[12:1],,7,,,,{8}1/5,
6pp8[8:1],4/7,{12}2pp1[4:1],3,{24},7,{8}7,6,5V73[4:1],8/4,
5/3V15[4:1],4,5,4,{12}2,{24}2,4,,4,{12}5,{24}5,7,,7,
{8}1h[8:1],8h[8:1],{12}2>5[8:1],{24}6,5>2[8:1],,8-4[8:1],2,,,,,8,,,,{8}1,
6h[8:1],8h[8:1],{12}7<4[8:1],{24}3,4<7[8:1],,1-5[8:1],7,,,,,1,,,,{8}8,
{12}2,{24}1,3h[12:1],,4,{12}1h[12:1],{24}8,4h[12:1],,5,{8}7-2[8:1],5-8[8:1],7,5,
{16}2h[8:1],,,1h[8:1]/3h[8:1],,,{8}4/8,{2}5-1[12:1]/7-3[12:1],
{8}4/3b,4/2b,4/1b,{24}7/8,,6,{12}5V37[6:1],{24}7,8,,6,{4}5,
{8}5/6b,5/7b,5/8b,{24}2/1,,3,{12}4V62[6:1],{24}2,1,,3,{4}4,
{8}3h[8:1],{16}1-5[12:1],2h[8:1]/8h[8:1],,,{8}1/7,6h[8:1],{16}8-4[12:1],1h[8:1]/7h[8:1],,,{8}8/2,
{16}3h[8:1],,,5h[8:1]/7h[8:1],,,{8}2h[8:1]/5h[8:1],{16},3h[8:1]/8h[8:1],,,{8}7/1,8/2,
{16}3/1-5[2:1],,,8,8,,,3,3,,,6,{4}6,
{12}2-6[12:1],{24}4,5<8[12:1],,8,{8}2-4[12:1],5-1[12:1]*-2[12:1],2,5b,{12}8,{24}5,6,,3,
{8}4-8[12:1],7/5,4/1>4[12:1],2,1/5v2[12:1],6,5/7,8b,
{12}7-3[12:1],{24}5,4>1[12:1],,1,{8}7-5[12:1],4-8[12:1]*-7[12:1],7,4b,{12}1,{24}4,3,,6,
{8}5-1[12:1],4/2,5/7-5[12:1],8,7/3qq7[24:5],4,3/5,6b,
{12}5,{24}3,4,,5,{12}4,{24}3,4qq5[16:4],,2,{12}1v6[8:1],{24}5,4,,,{8},{24},,,
{8}6,{24}4/5,,5/4,,,7,5,,4,{12}6pp5[16:3],{24}7,5,,4,{8}6,4,
{12}3,{24}3,4,,4,{12}2,{24}2,1,,1,{12}5,{24}5,6,,6,{12}8,{24}8,7,,7,
3,4,5,7,6,5,2,3,4,8,7,6,{32}4,5,4,5,3,6,3,6,2,7,2,7,1,8,1,8,
{24}2-8[12:1],,4,5,,7,2-6[12:1],,5,5p1[12:1]*v8[12:1],,2,,,,5b,,,2,,4,3,,6,
{24}5-8[8:1],,,6/4,,,3-8[8:1]/5,,,4,,,3/6,,,5v8[16:1]*v2[16:1],,,6/4,,,,,,
{24}7-1[12:1],,5,4,,2,7<4[12:1],,3,3p7[12:1]*v6[12:1],,7,,,,3b,,,5,,2,4,,3,
{24}6-2[8:1],,,7/1,,,6/3<6[8:1],,,4,,,8,,,1w5[16:1],,,8/2,,,,,,
{24}7/3,,4,5,,6,5,,4,5pp4[16:3],,7,8,,4v1[12:1],5,,,3,,,2h[8:1],,,
{24}6,,,7/1,,7/1h[8:1],,,8,,,2/7pp5[4:1],,,6,1,,7,3,,,4,,,
{24}3,,3,5,,5,2,,2,6,,6,1,,1,7,,7,2,,8,4,,6,
{24}2,,7,3b,,5,2,,7,4b,,6,2,3,4,5/6,7,8,{32}2,1,2,1,2,1,2,1,
{24}2q7[8:5]*>7[8:5],,,,,,,,,,,,,,,,,,,,,,,,
{24}2h[6:1],,,,8,7,6h[6:1],,,,2,3,4h[6:1],,,,7,6,5h[8:1],,,4,,,
{24}2-5[8:1],,,6/3,,7,2,,,6,,,7-4[8:1],,,6/2V48[4:1],,,1/7,,,2,,,
{24}6h[8:1],,,,,1h[6:1],,,,5,,,5,6,7,4,3,2,6,7,8,3,2,1,
{24}8/7,,2,7,,8-4[12:1],1,8,1,8w4[12:1],1,8,,,,8b,,,,,,4,,4,
{24}3h[8:1]/5h[8:1],,,,,,5/4,,5/3,,5/2,,5/1-5[12:1],,,,,1b,,,6,,,,
{24}8h[24:11],,,,,,,,,,,{48}1b,2,{24}3p1[4:1],,,{48}8b,7,{24}6,,,,,,,,
{24}5-1[4:1],,,,,,,,,,,,2,3,4,8,7,6,3,4,5,7,6,5,
{24}3h[2:1],,,4,,,,,,4,,,5h[2:1],,,4,,,,,,4,,,
{24}3h[2:1],,,5,,,,,,5,,,6h[4:1],,,4,,,,,4,6,,6,
{24}3,,3,5,,5,2,,2,7,,7,1,,6,2,,2,8,,8,3,,3,
{24}8>7[4:1],,,,,,,,,,,,3,,1,2,,7,8,,6,5,,7,
{24}1-3[12:1],,6,4,,8,1-6[12:1],,5,5-1[12:1]*-2[12:1],,1,,,,5b,,,8,,2,4,,7,
{24}5-1[12:1],,4,6,,,7-3[12:1]/5,,,6,,,7/4,,,5v2[16:1]*q1[16:1],,4,6,,,5b,,,
{24}8-6[12:1],,3,5,,1,8-3[12:1],,4,4-8[12:1]*-7[12:1],,8,,,,4b,,,1,,7,5,,2,
{24}4-8[8:1],,3,1,,,4/7<3[8:1],,,6,,,2,,,1w5[16:1],,2,8,,,1b,,,
{24}2/7,,3,4,,2,1,,3,5pp8[16:3],,2v4[24:3],7,,3,5,,,,,,,,,
{24}6,,,7/5,,7h[8:1]/5,,,2,,,8/3qq7[4:1],,,4,8,,3,6,,,4,,,
{24}5,,5,8,,8,6,,6,2,,2,8,,8,4,,4,6,,4,7,,5,
{24}6,4,5,3,4,2,7,5,6,4,5,3,{32}8,7,6,5,4,3,2,1,8/4,5,6,7,8,1,2,3,
{24}4>8[4:1]/8<4[4:1],,,,,,,,,,,,,,,{48}1b/8b,2/7,{24},,,,{48}8b/1b,7/2,{24}6/3,,,
{48}1b/8b,2/7,3/6,4h[4:1]/5h[4:1],,,,,,,,,,,,,,,,,,,,,
E
