&title=だから僕は音楽を辞めた
&artist=ヨルシカ
&first=0
&des=だから僕は譜面を辞めた
&lv_6=13
&inote_6=(125)
{8},,,,,,,,,,,,
{8}4,,4,,
{8}2>5[8:1]/5,,6,,7qq8[4:1]/5,,1,,2>5[8:1],,6,,7qq4[4:1]/5,,3,3,,
{8}2,2qq7[4:1],,6,6>3[8:1],,1,1w5[8:1],,1,,37,37,,28,
{8}7<4[8:1]/4,,3,,2pp1[4:1]/4,,8,,7<4[8:1],,3,,2pp5[4:1]/4,,6,6h[8:3],,,4-8[8:1],3,7-4[8:1],6,,,
{16}3,3,,5,4,,6,5,7p2[8:1],,1,,1,,,,
{16}3/4<7[8:1],,2,,34,,1-5[8:1],8,,2,1,,3,,,,
{16}6/5>2[8:1],,7,,56,,7,1,,1,8h[8:1],,1,8,2,,
{16}3/4>1[8:1],,5,,46,,7p3[8:1],8,,8,7,,1,,2,,3/5-1[8:1],,,,4,,4,,28,,7,,35,,2,,
{16}6/5>2[8:1],,7,,65,,8-4[8:1],1,,7,8,,6,,,,
{16}3/4<7[8:1],,2,,43,,2,8,,8,1h[8:1],,8,1,7,,
{16}6/5<8[8:1],,4,,53,,2q6[8:1],1,,1,2,,8,,7,,6/4-8[8:1],,3,,5-1[8:1]/4,,6,,45,,3,,1/8,18,,,
{8}3/4q5<1[2:1],,3,,3,,3,2,1p8>5[2:1]/7,,7,,7,,7,6,
{16}3/5,,2,1,2,,8h[8:3],,
{24}6,5,4,3,,,1,,,,,,
{16}2,,2,4,,4,3,,5,4,7-4[8:1],,,,17,,,,25,,3,,3,5,,5,2,4,1-5[8:1],,82,,
{16},,6,6,4,,7-4[8:1],,6,,1<4[16:3],,2,,7h[8:7],,,,,,4,,,,4-8[8:1],,,,4,,,,7,8,7,8,7,1,1,,27,,27,,4,5,4,5,3>6[8:3],,,,5,,,,5,,,,5,,4,,3/6<3[8:3],,,,4,,,,4,,,,4,,5,,6/3pp6[8:3],,,,7,,,,7,,,,7,,8,,1-5-3[16:3]/6,,7,7,,,8-4-7[16:3],,,3,3,,2,,,,
{16}1-5[8:1],,2,,6-1[8:1],,7,,3V15[16:3],,3,,,,,,6,6,4,,3/7qq4[8:3],,1,,1,,,2,,,2,,3h[16:3],,,4h[16:3],,,5-1[8:1],,,,6,,6,,,,1/8,18,,26,,,3b-8[8:1]/7b-4[8:1],,,,,,,,,,
{16}2b/7b,,1-5[8:1],8,,2,1,,3,,4<7[8:1],5,,3,4,,2,,1-4[8:1]/8-5[8:1],,27,,1b/8b,,,,4/5,,6,,6,5,7,,3,4,2,,8,8,1-5[8:1],,6<1[8:1],,1,,6,,2hb[8:3],,
{24}3,4,5,6,,,
{16}8-4[8:1],,3>8[8:1],,8,,3,,7,,
{16}6b/2b,,8-4[8:1],1,,7,8,,6,,5>2[8:1],4,,6,5,,7,,8-5[8:1]/1-4[8:1],,72,,8b/1b,,,,3/6,,1,8,1,,7b-3[8:1],,2b/4b,,,,,,5bw1[8:1],,4b/6b,,,,,,
{16}3,4,3,5,4,5,3,3,,6,5,6,4,5,3,3,4,2,4,1,5,3,5,2,6,4,6,3,8,1,27,,,
{24}64,,,64,,,25,,,25,,,17,,,17,,,26,,,26,,,34,,,34,,,65,,,65,,,18,,,
{16}27,,4,35,,
{16}6,5,6,4,6,3,7,,2,4,2,5,2,6,1,,
{8}2h[8:1],4h[8:1],5h[8:1],7h[8:2],,
{24}4,5,6,7,8,1,2,,,{16}6,6h[8:1],,4,,3h[16:3],,,4,,5,64,,73,,,2h[8:1]/1h[8:1],,,7h[8:1]/3h[8:1],,,81,,6/2-6[8:1],,,,7,,,,
{8}6/5p4>8[2:1],,6,,6,,6,7,1p8<4[2:1]/2,,2,,2,,2,3,4>1[8:1]/6,,7<4[8:1],,1h[4:1],,8,,5<8[8:1]/3,,2>5[8:1],,8h[4:1],,1,,2pp5[8:3]/6,,7,,,,8,,7qq4[8:3]/3,,2,,,,1h[4:1],,3>6[8:3],,4,,,,5h[4:1],,6<3[8:3],,5,,,,45,,6p4>7[2:3]/3,,1,,,,1,,,,3,,,,3,,4q5<2[2:3]/5,,8,,,,8,,,,6,,,,6,,
{8}3<6[4:1],,,,7p2[4:1],,,,1<4[2:1],,,,,,,,
{8}6>3[4:1],,,,2q7[4:1],,,,8b,,,,,,,
{16}1,1,8b<5b[16:3],,,5b>2b[16:3],,,2b<7b[16:3],,,7b<4b[16:3],,,3,,2,,1b-5b[8:1],,,,8,,8,,,,47,,
{16}6,5,6,5,7b-3b[8:1],,2b/4b,,,,,1b,,,
{24}4,5,4,5,4,5,4,5,4,3b>6b[32:5]/6b,,,,,,,,,,,,
{16}34,,2,,65,,7,,1bv6b[8:1]*v4b[8:1],,82,,1b,,,3b/7b,,,28,,
{16}6,,6,5,7,,3,4,2,,8,8,1-5b[8:1],,6<1b[8:1],,1,,6,,2hb[8:3],,
{24}3,4,5,6,,,
{16}8-4b[8:1],,3>8b[8:1],,8,,3,,7,,
{16}6b/2b,,5>2b[8:1],4,,6,5,,7,,8-4b[8:1],1,,7,8,,6,,5-8b[8:1]/4-1b[8:1],,63,,5b/4b,,,,2/7,,1,8,1,,7b-3b[8:1],,2b/4b,,,,,,1bs5b[8:1],,3b/7b,,,,8b,,,,6,3,5,2,4,1,3,8,2,7,1-5b[8:1],,,,1b/4bq5b[8:4],,,,
(62.5)
{32}5?<3[8:3],,,,
