&title=天下トーイツ A to Z☆
&artist=Pastel*Palettes
&first=0
&des=闪光丸山彩@MMFC10
&lv_5=12
&inote_5=(153)
{1},,
{4}3V15[4:1]*v5[4:1],,,,1-5[4:1]/8-2[4:1],,,,7z3[4:1]*z3[4:1],,,,4bx-2[8:1]/5bx-7[8:1],4b-8[8:1]/5b-1[8:1],4b/5b,Cf/B6/B3,
{8}2-5[8:1],2,7-4[8:1],7,1-5[8:1],1,7,7,1bx/8bx,C/B1,1bx/8bx,C/B3,1bx/8bx,C/B5,1bx/8bx,C/B7,7-4[8:1],7,2-5[8:1],2,8-4[8:1],8,2,2,8bx/1bx,C/B8,8bx/1bx,C/B6,8bx/1bx,C/B4,8bx/1bx,C/B2,
5hx[4:1]/6hx[4:1],,,5x/6hx[1:1],,,,,B5,,B4,,B3,,B2,,3-8[8:1]/7-4[8:1],3/7,Cf,,6-1[8:1]/2-5[8:1],6/2,Cf,,,
{16}Cf/B3/B4,,,Cf/B6/B5,,,Cf/B3/B4,,,,
{4},
{4}3h[4:3]/5h[4:3],,,,6h[4:3]/4h[4:3],,,,7h[4:3]/2h[4:3],,,,
1-3[8:1]/8-4[8:1],8-6[8:1]/1-5[8:1],1-3[8:1]/8-4[8:1],1b/8b,
{16},,4,5,3,,3,,
{8}
2-5[8:1],7-4[8:1],,,
{16},,5,4,6,,6,,
{8}
7-5[8:1],5-1[8:1],,,
{16},,4,5,3,,3,,
{8}2-5[8:1],8-4[8:1],,,
{16}E1f,,,E3f,,,E5f,,E7f,,,,
{4},
{4}3h[1:1],,,B4,5h[1:1],,,B6,7h[1:1],,,B8,1b-7[8:1]*-6[8:1],1b-3[8:1]*-4[8:1],1bw5[8:1],1b,2x-6[8:1],6-2[8:1],2-6[8:1],6,7-3[8:1],3-7[8:1],7-3[8:1],3,1h[4:1],2h[4:1],3h[4:1],4h[4:1],5h[4:1],6h[4:1],7h[4:1],8h[4:1],1-4[8:1]*-6[8:1],,8-5[8:1]*-3[8:1],,Cf/E1/E5,,Ch[4:1],,
{16}3/8,,2-5[8:1],1,,1,2,,8,,8-4[8:1],1,,1,8,,
{4}1b-3[8:1]*-4[8:1],1b-7[8:1]*-6[8:1],1bw5[8:1],1b,
{16}6/1,,7-4[8:1],8,,8,7,,1,,1-5[8:1],8,,8,1,,
{4}8b-6[8:1]*-5[8:1],8b-2[8:1]*-3[8:1],8bw4b[8:1],8b,
{8}4x/3x,2,3/4,5,
{16}3/4,,3,4,3,4,3,,
{8}5x/6x,7,6/5,4,
{16}6/5,,6,5,6,5,6,,
{8}3-8[8:1]/7-4[8:1],3/7,Cf,,6-1[8:1]/2-5[8:1],6/2,Cf,,
{16}Cf/B3/B4,,,Cf/B6/B5,,,Cf/B3/B4,,Cf/B6/B5,,,,
{4},
{16}3/8,,2-5[8:1],1,,1,2,,8,,8-4[8:1],1,,1,8,,
{4}1b-5[8:1],1b-3[8:1]*-7[8:1],1bw5b[8:1],1b,
{16}6/1,,7-4[8:1],8,,8,7,,1,,1-5[8:1],8,,8,1,,
{4}8b-4[8:1],8bv2[8:1]*v6[8:1],8bw4b[8:1],8b,
{8}4x/3x,2,3/4,5,
{16}3/4,,3,4,2,4,3,,
{8}5x/6x,7,5/6,4,
{16}4x,5,4,5,
{4}3b/6b,1bw5[8:1],,8bw4[8:1],,
{8}2bx-5[8:1],2,7-4[8:1],7,1-5[8:1],1,7,7,1b/8b,Cf/B1,1b/8b,Cf/B3,1b/8b,Cf/B5,1b/8b,Cf/B7,7-4[8:1],7,2-5[8:1],2,8-4[8:1],8,2,2,8b/1b,Cf/B8,8b/1b,Cf/B6,8b/1b,Cf/B4,8b/1b,Cf/B2,
5hx[4:1]/6hx[4:1],,,5x/6hx[1:1],,,,,B5,,B4,,B3,,B2,,3-8b[8:1]/7-4b[8:1],3/7,Cf,,6-1b[8:1]/2-5b[8:1],6/2,Cf,,,
{16}Cf/B3/B4,,,Cf/B6/B5,,,Cf/B3/B4,,,,
{4},
{1}Ch[1:2],,E
