&title=国士无双
&artist=Laur
&first=0.05
&lv_5=15
&des=torli
&des_5=torli
&inote_5=
(340){4},{1},{4},,,{8}5,
6,4,7,5,6,4,7,
5,6,4,7,5,6,4,7,
5,6,4,7,5,6,4,7,
5,6,4,7,5,6,4,7,
3,4,2,5,3,4,2,5,
3,4,2,5,3,4,2,5,
3,4,2,5,3,4,2,5,
3,4,{4}1b,{2}1b,
{1}5h[4:5]/7pp3[1:1],
,{4},7/5,
{8},4/2,{4},{8}7/3,
{4},{8}6/1,{4},5/4,
{1}4h[1:1]/2qq6[4:3],
,{8}7/3,
{4},{8}5/4,{4},8/3,
{8},6/2,{4},{2}5/4,
1/8-6-2-4[4:3],1h[2:1],
,6/2,
{1}8/1>8[4:3],
1-5[4:1],
2/6-8-4[2:1],
1>8[4:3],
4-2-6-8-4[8:11]*-6-2-8-4[8:11],
,Ch[1:2],
,8<1[4:7],
B2/E3/B3,
8<1[4:7],
B7/E7/B6,
8<1[4:7],
C,
Ch[1:1],
B7/E7/B6/B2/E3/B3,
{4}6/5h[4:1],6,3/4,5/1,
3/4h[4:1],3,6/5,8/4,
6/5,6/5,3/4,5/1,
4/3,4/3,6/5,8/4,
{8}3,3,6,6,2,2,7,7,
{16}1x,8x,1x,8x,1x,8x,1x,8x,1x,8x,1x,8x,{4}1b,
{16}B8,B7,B6,B5,B4,B3,B2,B1,8x,7x,6x,5x,1,2,3,4,
{12}6,5,,7,3,4,2,6,5,8b,{6},{4}7b/2b,
{8}6,6,2,2,8,8,
3,3,7,7,{16}3,4,{8}3,{16}6,5,{8}6,
4,4,8,8,2,2,8,8,
1,1,{16}6,5,{8}6,{16}3,4,{8}3,{16}6,5,{8}6,
{4}2b/7b,{8}3,3,8,8,4,4,
6,6,2,2,{16}7,8,{8}7,{16}2,1,{8}2,
{4}6,7b/2b,{16}3,4,{8}3,{16}6,5,{8}6,
{4}2b/7b,{16}1,2,3,4,8,7,6,5,{4}1,
2b/7b,{8}3,3,8,8,2,2,
6,6,1,1,{16}7,6,{8}5,{16}2,3,{8}4,
7,7,1,1,6,6,3,3,
7,7,{16}3,4,{8}3,{16}6,5,{8}6,{16}3,4,{8}3,
{4}2b/7b,{8}8,8,4,4,7,7,
{16}1,8,{8}1h[8:1],{16}8,1,{8}8h[8:1],{16}1,8,1,8,{4}1b,
{8}7/5,6,5,6/4,5,4,5/3,4,
3,2b/6b,{4},,,6/5h[1:1],
6,6,6,
6,6,6,{8}6/5,4,
{4}6/3h[4:3],6,6,6,
6/5,{8}6/5,4,6/3,2,{4}6/1V35[4:3],
6,6,6,6,
6,6,6,{8}6/5,4,
{4}6/3,{8}6,5,6,4,{4}6,
{8}6,5,7,4,8,3,1,2,
{4}1b-5[8:1],2-4[8:1],7-1[8:1],2-5[8:1],
6>3[8:1],1-5[8:1],7-3[8:1],2-5[8:1],
8-4[8:1],1-5[8:1],6>3[8:1],2,
{16}7,8,{8}7,3,3,6,6,{4}5/4,
,8/1,{8}6,3,7,2,
{4}8/1,{8}6,5/7h[4:1],,3,{4}4/2h[4:1],
,{8}8/4,7,6,1/5,2,3,
7/4,6,5,4/1,2,3,{4}8/4,
6,{8}6,1pp5[8:5],{4}6,6,
6,6,6,{8}6,5,
{4}6,{8}6,4h[8:3],{4}6,6,
6,{8}6/5,4,6/3,2,{4}6/1V35[2:1],
6,6,6,{8}6,5,
6,4,{4}6,6,{8}6,5,
{4}6,{8}6,5,6,4,6,3,
6,6,4,4,7,7,1,1,
{4},2-5[8:1],8-4[8:1],3<6[8:1],
7-5[8:1],8-4[8:1],7-3[8:1],1-5[8:1],
6>3[8:1],2-7[8:1],8-4[8:1],1,
{16}1,2,{8}3,7,7,4,4,{4}5/4,
{8}6/4,5,4,3/5,4,3,2/4,3,
2,1/3,2,1,8/2,1,8,7/1,
8,7,6/8,7,6,5/7,6,5,
{1}8h[2:1]/4h[2:1],
{24}B8,B7,{12}E7,{1},{3},{2}4h[2:3],
{1},5h[2:3],
{2},1xV35[1:1],
{1},{24}E7,
B6,{12}B5,{1},{3},{2}B6,
{1},{12}B3,
B4,{1},{3},{24}B1,
B2,{3},{12}E6,
{1}5xh[2:1],
{4}3,3,3,6,
5,4,2,2,
2,5,6,7,
8,8,8,3,
{8}5,4,5,4,{4}5,{8}3,4,
2,5,4,7,4,5,2,5,
{4}3,3,3,7,
{12}7,6,5,4,{6},{4}1,1,
1,7,{12}7,6,5,4,{6},{4}2,
{8}2,5,{4}2,2,
{8}5,4,5,4,{4}5,{8}2,2,
{4}2,6,7,1/8V64[4:7],
1,1,1,1,
1,1,1,1,
3/4,4/2,5/6,5/7,
4/3,4/1,5/6,8/5,
{8}4,5,4,5,3,6,3,6,
2,7,2,7,1,8,1,8,
{16}1,2,3,4,5,6,7,8,1,2,3,4,5,6,7,8,
{1}1bh[2:1]/5bh,
{8}3,4,1,8,5,6,1,8,
3,4,1,8,{24}2,3,4,5,{12},{24}7,6,5,4,{12},{8}1,
1,6,5,8,1,4,3,
{16}6,5,{8}6,{16}3,4,{8}3,{16}8,1,{8}8,{4}7/2,
{8}3,4,1,8,5,6,1,8,
{24}2,3,{12}4,,{24}7,6,{6}5,{24}1,2,{12}3,,{4}8b/4b,
{8}6,5,{16}8,1,{8}8,3,4,{16}1,8,{8}1,
{2}2b/7b,1b-5[8:1],
{4},7b/2b,{8}3,4,1,8,
5,6,{16}1,8,{8}1,6,5,8,1,
7,{24}7,6,5,{8}1,{24}1,2,3,{8}5,{24}5,6,7,{8}2,{24}2,3,4,
{8}6,6,{16}1,8,{8}1,6,5,{16}8,1,{8}8,
{16}2x,6x,2x,6x,2x,6x,2x,6x,2x,6x,2x,6x,2x,6x,2x,6x,
2x,6x,2x,6x,2x,6x,2x,6x,{32}2x,3,4,5,6,7,8,1,2,3,4,5,6,7,8,1,
{1}2b/6b,
Ch[2:1],
{4}5/6h[4:1],{8}5,7,5,6,,7/4,
,5/6,,7/4,{4}7/4,6/5,
4/3h[4:1],{8}4,2,4,3,,2/5,
,3,4,2,4,3,5,3,
{4}4/2h[4:1],{8}4,2,4,3,,5/2,
,4/3,,5/2,{4}5/2,4/3,
{8}7,7,{16}1,8,{8}1,{4}6/2,{16}3,4,{8}3,
{16}6,5,{8}6,{4}7/2,6,1-5[8:1],
{2},{8}4/7,7/4,,6/5,
,7/4,,7/4,{4}7/4,6/5,
4/3h[4:1],{8}4,2,4,3,,5/2,
,7,6,5,1,1,8,7,
{4}5/6h[4:1],{8}5,7,5,6,,7/4,
,6/5,,7/4,{4}7/4,8/1,
{16}A8,E1,B1,B2,E3,B3,B4,E5,B5,B6,E7,B7,B8,B1,B2,B3,
{1}Ch[2:1],
{8}8/4,7,3,5,2,6,5/1,2,
8,4,6,2,4/8,7,2,6,
{1}1bh[2:3]/5bh[2:3],
,{8}1/5,
2,6,4,7,3,4/8,7,
1,5,3,7,5/1,2,7,3,
{1}8bh[2:3]/4bh[2:3],
,{8}8/4,
7,3,5,2,6/3,7,2,
8,4,6,2,4/8,7,2,6,
{1}1bh[2:3]/5bh[2:3],
,1>8[2:3]*V35-1[2:3],
,{4}4,
4,5,5,
3,3,6,6,
{8}4,5,4,5,3,6,3,6,
2,7,2,7,1,8,1,8,
{16}1x,8x,1x,8x,1x,8x,1x,8x,1x,8x,1x,8x,1x,8x,1x,8x,
{32}1x,2x,3x,4x,5x,6x,7x,8x,1x/6x,5x,4x,3x,2x,1x,8x,7x,6x/3x,4x,5x,6x,7x,8x,1x,2x,3x/8x,7x,6x,5x,4x,3x,2x,1x,
{1}4b/8bh[2:1],
,{8},C,
{1},{4},B8,
B2,
{2}B5,{4}E2,E7,
{2}B4,{4}B8/B7/E8,E4/B4/B3,
E6,{12}E3,B3,B4,{4}E5,B6,
{2}C,{4}B1,B7,
{2}B4,{4}E8,E3,
{2}B5,{4}B1/B2/E2,E6/B5/B6,
E4,{12}E7,B6,B5,{4}E5,B3,
{1}C,
5h[1:2],
,4h[1:2],
,Ch[2:3],
,{8}7/4,
7/4,,1/5,{4}5/1,{8}8/4,4/8,
{2},{4}5,4,
{2}3h[1:1],{4}5,6,
{2}7h[4:5],{4}4,3,
2,{12}E3,B3,B4,{4}E5,5x,
{2}6/4,{4}4,5,
{2}6h[1:1],{4}4,3,
{2}2h[4:5],{4}5,6,
7,{12}E7,B6,B5,{4}E5,4x,
{2}3/5,{4}3h[4:1],5h[4:1],
{8}4,5,4,5,4,5,4,5,
4,5,4,5,4,5,4,5,
3,6,3,6,2,7,2,7,
{16}1,2,3,4,5,6,7,8,1,2,3,4,5,6,7,8,
{1}1b-5b[1:1],
,5bh[1:1]/4bh[1:1],
{2},{4}6/3,7/2,
8/1x-3[8:1],6,7/1x-5[8:1],5,
4/1x-3[8:1],5,6/1x-5[8:1],7,
6/1x-3[8:1],5/1x-7[8:1],7/1x-5[8:1],6/1x,
7/3,4x/6x,4/6,3/7,
2/8x-6[8:1],3,2/8x-4[8:1],3,
2/8x-6[8:1],4,3/8x-4[8:1],2,
3/8x-6[8:1],4/8x-2[8:1],2/8x-4[8:1],3/8x,
6/2,{8}5,5,4,4,{4}6/3,
2/8x-6[8:1],3,2/8x-4[8:1],3,
2/8x-6[8:1],4,3/8x-4[8:1],2,
3/8x-6[8:1],4/8x-2[8:1],2/8x-4[8:1],3/8x,
6/2,{16}3,4,{8}3,{16}6,5,{8}6,{4}7/2,
7/4,6/5,5/2,4/3,
6/5,7/4,4/3,5/2,
{8}7/4,7/4,,2/5,{4}5/2,{8}8/4,4/8,
,1/5,{4}5/1,{16}1x,8x,1x,8x,1x,8x,1x,8x,
{8}1-5[8:1],1,7-4[8:1],7,2-6[8:1],2,8-4[8:1],8,
3-7[8:1],3,5-1[8:1],5,2-6[8:1],2,8-4[8:1],8,
3-7[8:1],3,6-4[8:1],6,2-8[8:1],2,7-3[8:1],7,
4,4,{16}6,5,{8}6,{16}3,4,{8}3,{16}8,1,8,1,
{8}8-4[8:1],8,2-5[8:1],2,7-3[8:1],7,1-5[8:1],1,
6-2[8:1],6,3-5[8:1],3,7-1[8:1],7,2-6[8:1],2,
5-1[8:1],5,3-7[8:1],3,8-4[8:1],8,2-6[8:1],2,
5,5,{16}3,4,{8}3,{16}6,5,{8}6,{16}1,8,1,8,
4x,5x,4x,5x,4x,5x,4x,5x,4x,5x,4x,5x,4x,5x,4x,5x,
3x,6x,3x,6x,3x,6x,3x,6x,3x,6x,3x,6x,3x,6x,3x,6x,
2x,7x,2x,7x,2x,7x,2x,7x,2x,7x,2x,7x,2x,7x,2x,7x,
{1}1bw5[4:1],
{4}8/4,6h[2:1]/5h[2:1],{2},{4}5/1,
4h[2:1]/3h[2:1],{2},{1}8b<1b[4:3],
Ch[2:1],
{16}1,8,{8}7,4,4,{16}8,7,{8}6,3,3,
{16}7,6,5,4,3,2,1,8,{2}7b/3b,
{1}1-3-6v5b[4:7]*-7-4v5b[4:7],
,{2},6h[1:1]/4h[1:1],
{1},{2}7/3,
8/2,
{8}3,4,3,6,5,6,3,4,
2,6,5,7,4,5,2,5,
4,7,3,5,1,6,4,8,
{1}Cfh[1:1],
,{2}8h[4:1]/4h[4:1],
{4}6/2,6/2,
{8}7/3,7/3,{4}3h[4:1]/7h[4:1],,6/4,
6/4,{8}7/3,7/3,{2}3h[4:1]/7h[4:1],
{4}5/1,7/3,{8}6/2,6/2,{4}6/2,
8/4,8/4,{8}7/2,{24}1,8,1,8,1,8,1,{12},{4}7/2,
7/2,7/2,7/2,
{8}4,4,5,5,3,3,6,6,
{16}3,4,{8}3,{24}8,1,8,1,8,1,{2}8b-4b[4:1],
{4},{8}2b/6b,3,4,1b/5b,6,7,
5b/8b,6,7,4b/8b,1,2,7b/3b,8,
1,6b/2b,3/7,4/8,5b/1b,{4},{32}8b-2-7-1-4>8b[8:11]*-6-1-7-4<8b[8:11],7b/1b,6b/2b,3b/5b,
{1}4b,
