&title=Amnéhilesie
&artist=MisomyL
&first=-0.14
&des_5=SINAMOKU
&lv_5=14
&inote_5=(230){4},,,Ch[8:5],
,,,,,,{2}Ch[4:3],
{4},,,,2,
4/3,5,4/6h[8:1],
6/4h[8:1],7,6/5,4,
5/3h[8:1],3/5h[8:1],2,4/3,
5,4/6h[8:1],7/3h[8:1],8,
6/5,4,5/3h[8:1],2/6h[8:1],
1,2/4,5/4,{8}6h[8:1],4,
7h[8:1],5,{4}8,7/5,4/5,
{8}3h[8:1],5,2h[8:1],4,{4}1,2/8,
7/3,{8}6h[8:1],5,3h[8:1],4,6,4,
7,7,5,8,3,3,4,2,
8-4[8:1],8,1-5[8:1],1,7,7,3,4,
1,5/1,2>5[8:1],2,8-4[8:1],8,3,3,
6,5,8,4/8,7-3[8:1],7,2-6[8:1],2,
8,8,3,4,2,5/2,1-5[8:1],1,
7<4[8:1],7,2,2,7h[8:1],8,6h[8:1],1,
5-1[8:1],5,5/2-5[8:1],2,2/6,6,3v6[8:1],8-2[8:1],
3,8,4-8[8:1],4,4/7-4[8:1],7,7/1,1,
6v1[8:1],3-5[8:1],6,3,{16}8x,7,6,5,7x,6,5,4,
6x,5,4,3,5x,4,3,2,4x,3,2,1,{4}8bx/Cf,
{8},2b/B4f/B3,,,{2}B7/B8f/6b-2[8:1]*pp4[2:1],
{4},3h,{8},5,,6,
{4}6/4h,3,2,5/1h,
4,3,{2}5/2h,
{4}6,4/6h,{8},3,,2,
{4}2/5h,6,7,4/8h,
{8}7,5,,5,{2}7V53[2:1],
{4},1h,{8},2,,8,
{4}8/3h,4,5,6/4h,
5,4,{2}5/3h,
{4}2,1/8h,{8},7,,4,
{4}4/6h[4:1],5h[4:1],4h[4:1],3V17[4:1],
{8},,5,5,3,4,B2/E3,6,
5,E7/B6,{4}4/8-2-7-4[2:1],,3,
2,1,8/2,7/3qq8[4:3],
,7x-4[4:1],{2}7x,
{4}3/5,6/2-6-4[8:3],{8},8,,7,
{4}3/7-1[8:1],2-4[8:1],2/5,8/7,
{8}6,5/7h[4:1],,2,{4}4/3-6[8:1],3/8x-4[8:1],
8x/4x,{16}2b/1,3,4,5,,,8/7b,6,5,4,,,2b/8b,
3/7,6/4,5,,,1b/7b,6/2,3/5,4,,,1b/8b,2/7,6/3,4/5<3[16:9],
,,,,{4}4x,{2}4xh[2:1],
{4}7,6/5-1[8:1],{8},8,,7s3[8:3]/2z6[8:3],
{4}2/7,,,B8/B1/B5/B4/Cf,
{8},,3,4,{4}2-5[8:1],6-8[8:1],
Cf,{8}2h,3b-8[8:1],,3h,{4}7b-4[8:1],
{8}7h,1b-5[8:1],,1h,{4}6b-1[8:1],{8}6h,4b-8[8:1],
,4h,{4}7b-3[8:1],{8}7h,1bv4[4:1],,1h,
{4}5b<1[4:1],2,2,8/3h[4:1],
{8}E8/E1,E3/E4,B6/B5,C,{16}4,3,4,3,{4}2/5,
1/8,5/7-4-1[2:1],{2}B8h[2:1],
{8},,4/7h,6b-1b[8:1],,3/6h,{4}4b-8[8:1],
{8}8/4h,7b-3b[8:1],,2/7h,{4}1b-5[8:1],{8}5/1h,4b-7b[8:1],
,1/4h,{4}8b-3[8:1],{8}6/8h,5bv8b[8:1],,2/5h,
{4}1b>4[8:1],6,5/7h[4:1],{8}E1/E2,E7/E6,
{4}B4/B3,2/5-2[8:1],7/5,{16}8h[8:5]/E1,E8,E7,E6,
E5,E4,{8}E3,1x,1x,7,6/5,2,3/4,
{16}6,5,6,5,{8}7/4b,7b/4-1[8:1],,B6/B7,,2,
7,8,3,1,2/8b,2b/8-5[8:1],,B2/B3,
,6,3,4,7,5,6/4b,6b/4-8[8:1],
,A7/D7/A6/E7,,5h[8:1],3,6h[8:1],4,7,
8b/1b,3,4,2,7,8,6b/1b,5,
4/3,2,{16}8<7-5>4v2[2:3],1,7,2,{2}8,
{4},3h,,,5-8>1-4b[2:1],
,,Cf,
6x/7x,3x/2x,5/1-3[8:1],{8}1-5[8:1],4,
{4}1,3/7-5[8:1],{8}7-3[8:1],4,{4}7,
{16}5,6,5,6,4,7,4,7,3,8,3,8,2,1,2,1,
2,1,2,1,2qq7>4[4:9],1,2,1,{2}2b,
{4},,,,,,,6,
5,{8}3h,4,{32}E3,B3,,,,,,,,,,,,,,,{4}6,
3,4,{8}6h,5,
{32}E7,B6,,,,,,,,,,,,,,,{4}4,6,
5,{8}3h,4,{32}E3,B3,,,,,,,{4}5,
6,4/6h[8:5],{8}B8/B1,,,3h[8:5],
{32}B6,B5,{16}B4,,,,,,,{4}5,C,
{8},,2,5,{64}3xq6[4:3],4x,{4},,{16},,,{32},{4}8,
{8}7h[8:3],,,4,
{64}6xpp4[4:3],5x,{4},{16},,,{32},{4}3,3,
{8},2,1,8,{4}7/1-3-5[2:1],B3,
B7,8-2-4[2:1],B2,B6,
{2}5-1[8:1],{8}8,8h[8:3],{16}6x,5,4,3,
2,1,8,7,6,5,4,3,{8}5bx/2-5[8:1],5/2bx,,E7h[4:1]/E6h[4:1]/B6fh[4:1],
,1,{16}3x/1h[4:1],4,5,6,7,8,1,2,3,4,5,6,
{8}4bx/7-3[8:1],4/7bx,,E2h[4:1]/E3h[4:1]/B2fh[4:1],,8,{16}7x/8h[4:1],6,5,4,
3,2,1,8,7,6,5,4,{8}3-8[8:1]/7-4[8:1],3bx/7bx,,Cf,
,1,{16}2/1h[4:1],3,4,5,6,7,8,1,2,3,4,5,
{8}6bv1b[8:1]/2bv5b[8:1],2b/6b,,,{4}8x/4x,{8}6/2,6/2,
{16}3,5,3,5,1,7,1,7,{4}E2h[2:1],E3h[4:1],
E4/E5,E8h[2:1],E7h[4:1],E6/E5,
{16}D2,A1,D1,A8,D8,A7,D7,A6,D6,A5,D5,A4,{8}3x/5x,3/5,
4x/2x,4/2,3x/1x-5[8:1],3/1,1h,6-1[8:1],,4/6h,
{4}3-7[8:1],{8}7/3h,6h[4:1],{16}8w4[8:1],1,{8}2,{4}8b,
{8}1/7h,2-5[8:1],,7/2h,{4}6-2[8:1],{8}2/6h,3h[4:1],
{16}1w5[8:1],8,{8}7,{4}1b,{8}8/2h,7-3[8:1],,2/7h,
{4}1,{16}8,7,{8}8,{16}6,5,{8}6,{16}3,4,{8}3,
{4}2bqq5b[8:3]/6bqq1[8:3],{16},,,,,,,,3,7,3,7,
2,6,2,6,1-3[8:1],5,1,5,{4}1-7<6[8:1],1-5[6:1],
1b/5,{16}6,2,6,2,7,3,7,3,8-6[8:1],4,8,4,
{4}8-2>3[8:1],8-4[6:1],8b/4,{16}2,7,2,7,
1,8,1,8,2,7,2,7,1,2,3,4,5/1-5[6:1],8,7,6,
{4}5/1b,{16}6,4,6,4,7,5,7,5,8-4[8:1],6,8,6,
{4}8b>3[8:1],8b<5[8:1],8b/4,{8}1/7,4/5,
{16}3,4,{8}2,{16}6,5,{8}7,{4}2-5[8:1],2-8[8:1]/7-3[8:1],
2/7,5/6-1[8:1],6-4[8:1]/3-7[8:1],6/3,
8/1-5[8:1],7-3[8:1]/1-4[8:1],1/7-5[8:1],2-4[8:1]/7-1[8:1],
2/7,{8}6,5,{16}8/4,7,6,5,1,8,7,6,
2,1,8,7,E3,B2,B1,E1,E7,B6,B5,E5,{4}Cf,
{8}1/2,3,4/5,6,8/7v4[8:1],1,{4}2/7,
{16}3,5,{8}3,{16}8-6-4[8:1],1,{8}8,{4}8>3[8:1],8-4b[8:1],
8b/4x,{16}3,7,3,7,2,6,2,6,1-3-5[8:1],5,1,5,
{4}1<6[8:1],1-5b[8:1],1b/5x,{16}6,3,6,3,
7,2,7,2,8,1,8,1,8b/B3h[8:1]/B4h[8:1],7,6,5,,,1b/B6h[8:1]/B5h[8:1],2,
3,4,{32},,,,1bh[4:1]/A7,B7,Cf,B3,{8}A3,{32},,,,8bh[4:1]/A2,B2,Cf,B6,{4}A6,
1/7x-2[8:1],7/5x,5/3x-6[8:1],3/1x,
{16}8,2,{8}8,{16}4,5,{8}4,{4}3/6-8-2[4:1],{8}2v5[8:1],3,
{4}4h[4:1],8-4[8:1]*-3[8:1],8,2b/6b,
{12}8,6,7,1,3,2,7,5,6,2,4,3,
6,4,5,3,6,4,{8}7-3[8:1],7,8-4[8:1],8,
1-5[8:1],1,2-6[8:1],2,3-7[8:1],3,4,4,
{16}6,5,{8}7h[16:1],{16}3,4,{8}2h[16:1],{16}6,5,{8}8h[16:1],{16}3xh,2,1,8,
5xh/7xh,4,3,2,7xh/1xh,6,5,4,{8}8x/3xh,7<4[8:1],,7/2,
{4}1-5[8:1],{8}6/1,7h[4:1],{16}4w8b[8:1]*-8b[8:1],3,{8}2,{16}4b,Cf,,,{8}3x/5x,
2>5[8:1],,7/2,{4}8-4[8:1],{8}8/2,3h[4:1],
{16}5w1b[8:1]*-1b[8:1],6,{8}7,{16}5b,Cf,,,{8}3x/7x,6-1[8:1],,2/6,
{4}3-7[8:1],{8}3/6,5h[4:1],{16}8w4b[8:1]*-4b[8:1],1,{8}2,{16}8b,Cf,,,{8}2x/6x,
1-3-5[8:1],,7/1,{4}6-2[8:1],{8}6/4,3h[8:5],
{32}1,8,7,6,5,4,,2,1,8,7,6,5,4,,2,{4}1x<4[4:1],4-2-8b[4:1],
8-6-2[4:1],4,1-3[8:1]*-5b[8:1],1b,
8x>5[4:1],5-7-1b[4:1],1-3-7[4:1],5,
8-6[8:1]*-4b[8:1],8b,{16}3x,5,3,5,3,5,3,5,
3,5,3,5,2x,4,2,4,2,4,2,4,2,4,2,4,
1x,3,1,3,1,3,1,3,1,3,1,3,{32}1bh,2,3,4,5,6,7,8,
1h/5bh,6,7,8,1,2,3,4,5h/1bw5b[8:1],2,3,4,5,6,7,8,{2}E1/E2/B1f/1b>1-3-5[8:21]*<1-7-5[8:21],
{1},,{4},,{8}3,
3,6,6,
4,4,7,5,6,2,4,3,
6,6,3,3,5,5,2-5-8[1:3],4,
2,7-3[8:21],5,7,
E
