&title=“Future Star” Yakusoku no Kizuna
&artist=Kuriyama Mirai (CV: Taneda Risa), Nase Mitsuki (CV: Chihara Minori), Shindo Ai (CV: Yamaoka Yuri)
&first=0
&des=Farato
&lv_5=12+
&inote_5=(120)
{1},
{4}1>4[4:3],,,,8qq3[4:3],,,,2qq5<4[1:2],,,,{1},7h[2:3],3h[2:1],{4}4qq1[1:1],,5,,6,,7,,1pp4[1:1]/8qq5[1:1],,,,,,63,2,1V72[2:1],,6,,8V64[2:1],,2,,
{4}2h[2:1],3,4h[2:1],5,5h[2:1],6,{4}7h[4:1],{4}4,8pp5>6[2:3]/3,,,,{4},,,,
{16}3,,3,,5h[16:3],,4,4,,,5,,6,,6,,7pp5[2:1],,,,4/7,,3,3,,,3,,2,,2,,1pp4[2:1],,,,6/1,,7,7,,,7,,8,,8,,1V37[2:1],,,,,,,,,,,,,,
{16}2,1,2-4[12:1],,,,2,,7,8,7-5[12:1],,,,7,,
{8}1,1>5[4:1],,5<1[4:1],,1s5[4:1],,,{8}6,7qq3[2:1],,75,4,3,2,1pp4[8:5],7,8,,8-4[16:1],,8,,36,{16}2,4,3-8[8:1],,,,35,,7,5,6-1[8:1],,,,64,,2,,{8}2>6[4:1],,6<2[4:1],,2z6[4:1],,,7,8h[4:1],,2,13,8-4[8:1],7,1-5[8:1]/8,2,7-4[8:1]/1,6,1w5[8:1]/7,3,1,,8b,,
{8}2>7[4:1],,7<2[4:1],,8,,7,,6h[4:1],4,4,{16}3,3h[16:3],,,4,,53,,64,,
{8}7<2[4:1],,2>7[4:1],,1,,2,,3h[4:1],6,6,{16}7/5,7>5[4:1]/5,{8},,,,1h[4:1],,8,{16}1>4[8:1]/7,17,,,1,,6,,7qq4[2:1],7,,,74,,3,,2,2h[16:7],,,,,3,,1,2,8-4[8:1],,,,87,,5,3,26,,,37,,,84,,1>8[8:7]*>3[8:2]*>4[8:3]*>5[8:4]*>6[8:5]*>7[8:6]/5,,,,,,,,,,,,,,,,4,,,,3,,,,8,,,,
{16}7,1,8,1,8,,72,,3,,4>1[8:1]/8<5[8:1],4/8,,,,,,8,6,1,7-3[8:1],2,8,,71,,2<4[4:1],2h[16:9],,,,,,,,,
{8}3,42,35,64,7q3[8:1],4,3-6[8:1]/7,2,3/7-2[8:1],,73,4,15,,
{16}37,2,8,2,8,3,41,,3,,2/8<4[8:1],28,,,,,,3,5,2,6v3[8:1],1,7,,61,,2qq6[4:1],2h[16:9],,,,,,,,,7,,8/3h[8:1],,4,,5/6h[8:1],,4,,1h[4:1]/2,,3,,4,,4-2[12:1],,6,,5-1[8:1]/4,,7,,53,,,,2b,8,3,7,4-7[10:1],6,5,,24,,1>5[6:1],1h[16:4],,,,,,8,6,8,6p2[8:1],1,7,,26,,1<4[4:1],1h[16:9],,,,,,,,,3,,2h[4:1]/1,,8,,7,,6,,5h[4:1]/1,,2,,3,,4-1[8:1]/2,,3,,4-7[8:1]/6,,5,,4/2h[4:1],,,,8,3,7,3,74,,8,,1<4[4:1]/3,,8/2,8/2h[16:5],,,,,,5,3,6,4,,4h[8:1]/5,,6,,7pp4[3:1]/3,73,,,,,,,,,
{8}2,1/3h[8:1],4,5h[8:1]/3,6,57,84,13,2,23,3,34,4-7[10:1],,4/6h[4:1],,
{8}5-2-4-1[1:1]*-8-6-1[1:1],,{8},,,,,,,,,,
{16}2,8,2,8,2,,17,,6,5,6,5,6,,53,,4,,3h[4:1],,4,,5h[8:1],,4,4,6,6,,,7h[8:1]/5,,3,7,2,8,1,8h[16:3],,,2pp5[2:1],,7,,12,,8,8,,,7,,6,,54,,3,,3,4,2,,6,5,7,,2,1,3,1,4,8,4h[4:1],,,,7<4[12:1],,7,8,,,3h[8:1],,4,3,5,2,6h[4:1],,,,1-4[10:1],,,,71,,,,4,5,4,5,36,,4,4h[16:3],,,5,5h[16:3],,,6,6h[16:3],,,7,8,16,,,24,,57,,63,,,8<1[1:4]/1>8[1:4],,,,,,{1},,,,
{8}4/5h[4:3]1,,4,,4,,4,,4/3h[4:3],,4,,4,,4,,7b/5,6,5,6,2b/4,3,4,3,8b/5,6,1b/4w8[8:1],3,4b,,
{16}4,6,3,7,2-5[10:1],8,1,,28,,6<2[6:1],6h[16:4],,,,,,8,3,7,4p7[8:1],6,5,,4,,8>5[4:1],8h[16:9],,,,,,,,,7,,5h[4:1]/6,,7,,8,,2,,4h[4:1]/3,,2,,1,,8-3[8:1]/2,,1,,8-5[8:1]/6,,7,,8/2h[4:1],,,,8,3,7,3,74,,8,,1<4[4:1]/3,,8/2,8/2h[16:5],,,,,,5,3,6,4,,4h[8:1]/5,,6,,7pp4[3:1]/3,73,,,,,,,,,
{8}2,1/3h[8:1],4,5h[8:1]/3,6,57,84,13,5h[8:1]/3,8b,4h[8:1]/6,1b,4-8[10:1],,4/6h[4:1],,
{8}1-4-2-5[1:1]*-6-8-5[1:1],{1},
{8},,
{16}4pp7[2:1]/3,4/3h[16:3],,,4,,3,,2,,1,1,,,52,,8pp3[2:1]/7,8/7h[16:3],,,8,,7,,6,,5,5,,,24,,2,8,1,7,2,6,54,,1-4[4:3]/8-5[4:3],18,,,,,,,,,
,,,,,,,,
{1},,,E
