&title=ラブマシーン3。
&artist=A4。
&first=0.02
&des=Nomris
&lv_5=13+
&inote_5=(120){4},{2},,,,,,,{48}3/6,
2/7,{24}1/8,{6},{8}2/5,
3,4/6-1[8:1],7,1-5[8:1],2,5,6,
7h[8:1],5,1h[8:1],3,6V48[16:3],7,4,3,
2,1/3,8,8/6,7,6/5,5/4,2,
3h[8:1],1,5h[8:1],7,8z4[16:3],7/1h[8:1],{4},{12}3,
{24}1,2,{12},{8}1/7,6,8/5V73[16:3],1,{4}5,
{8}4h[8:1],2,6h[8:1],8,5-3[8:1],7/4-1[8:1],{4},{8}6h[8:1],
{24}8,,7,{8}1,1/2,{12}3,{24}5,4,{12},{8}5/7,6,
2h[8:1],4,8pp4[8:3],6,{4}8,5,
{24}7b-3[8:1],{6},{24}1,{8}7,2,3-5[8:1],4,3,6,
8,7,1/6,2,3q5[4:1],8,{4}3,
{8}6-2[8:1],6,1s5[16:3],1,5,6,7h[8:1],4,
3-7[8:1],3,8z4[16:3],8,{24}4x,3x,2x,1x,{12},{4}1h[8:1],
{8}7/8q5[8:1],6,5v8[8:1],6,8v3[8:1],7,5,4,
3/4q1[8:1],2,1v4[8:1],2,4v7[8:1],3,1,8,
8h[12:1],6,7h[12:1],5,6h[12:1],4v5[8:1],{4}2h[8:1],
{12},{24}B3,B4,{12},{8}B6,B5,{12}E3,{24}B2,C,,B7/E7,{8},4,
8-4[8:1],7,{12}3-1[8:1],3,,{8}8-4[8:1],7,{12}3-1[8:1],3,,{8}8-4[8:1],
7,{12}3,3h[8:1],{24},1,{12}2,{24}7,8,{12},{8}5/6,{24}5/4,,3h[8:1],
{12},1,{24},2,{12}4,{24}3,8,,2,{12}4-1[8:1],{24}3,7h[8:1],{12},{8}4,{24}6,,8h[8:1],
{12},6,{24},5pp2[4:1],{12}2,{24}7,4,,5/1s5[16:3],{2},{12}6,
{24}6,4,,4,{8}2,{24}4,,4,{12}6<8[32:3],{24}6,8<5[8:1],{3},{12}3-6[8:1],
{24}2,4,{12},{8}3/2qq5[8:3],1,7-4[8:1],6,{4},{1}8h[8:7],
{8}Ch[8:5],{2},{8}E7f,{4}E3f,
{12}7b/1b-5[8:1],{24}5,4,{12},{8}1/2V84[4:1],3,2/4-2[32:3],5,7,6,
{12}1/5-1[8:1],{24}4,3,{12},{8}5/6V84[4:1],7,6/4-6[32:3],3,1,2,
{12}3/8-6[32:3],{24}4,5,,1,{8}8-4[8:1],5,{12}8x,2x,{24},4xh[6:1]/1s5x[24:7],{4},5s1[4:1],
1>5[4:1],5-1[8:1],1,
{12}8/7-3[8:1],{24}6,5,{12},{8}7/4pp5[16:3]*qq8[16:6],2,{2}4-8[8:1],
{12}3/1pp1[4:1],{24}3,4,{12},{8}1/5pp6[16:3],7,{4}5w1[8:1],5b,
{8}8-4[8:1],1,2-6[8:1],3,4-8[8:1],5,6,7,
1/A5f,2/A6f,3/A7f,4/A8f,{4}A1f/5p4[4:1],5/4,
Cf,{8}5/3-8[8:1],2,1-5[8:1],7,4,3,
1h[8:1],3,8h[8:1],6,3V51-7[4:1],2,8,6,
4bx,2/6,8,2/6,4,6/5,1/8,2,
5h[8:1],7,3h[8:1],1,8s4[16:3],1/7h[8:1],{4},{12}6,
{24}1,8,{12},{8}1/2,3,1/4-2q6[16:3],8,{4}4,
{8}8h[8:1],7,3h[8:1],2,4-7[8:1],2/5-1[8:1],{4},{8}3h[8:1],
{24}1,,4,{8}7,5/6,{12}7,{24}3,4,{12},{8}5/2,3,
8h[8:1],5,1qq5b[8:3],4,{4}1,5,
{1}1xh[2:5],
{2},,,{4}Ch[4:1],
8x-2-7-3-6-4-6-3-7-2-8[4:15],
{1},,,,{2}C,
{4}4-8[8:1]/5-1[8:1],4/5,
{8}3/6,{24}2,,4,{8}1h[8:1],{24}8,,5,{12}7,{24}4,6,,2,{8}4,5/6,
{12}7,{24}7,5,,6,{12}4,{24}7,8,,5,{12}3,{24}3,1,,1,{12}2-5[8:1],8/3,,{8}2/5,
6,{12}2,{24}3,8,,7<4[8:1],{12}3,4,{24},7,{8},1,
{12}2,{24}2,4,,4,{12}6,{24}6,8,,8,6,5,4,3,{12},{24}5,4,6,1b,{12},{8}3/4,
{24}2,3,4,{8}5/1,{24}1,2,3,{8}4/8,{24}8,7,6,{8}5/1,{24}1,8,7,
{12}6/4<8[8:1],{24}3,5,{12},{4}2/4V28[8:1],6/4pp6[8:1],{8}4/2,{24}1,,2,
{8}8h[8:1],{24}5,,7,{8}8h[8:1],{24}4,,2,{8}7h[8:1],{24}1,,6,{8}5h[8:1],{24}2,,4,
1,8,7,4/6,3,2,7/1,6,5,4,3,2,{4}8-4[8:1]/1-5[8:1],8b/1b,
{12}2/8-4[8:1],{24}4,6,{12},{8}8/7-3-5[4:1],6,7/5-8[32:3],4,2,3,
{12}8/4-8[8:1],{24}5,7,{12},{8}4/3-7-5[4:1],2,3/5p1[32:3],6,8,7,
{12}6/1-6[32:3],{24}3,4,,2,{8}1-5[8:1],4,{12}1x/6x,7x,{24},5xh[6:1]/8xz4[24:7],{4},{8}4z8[4:1],
3x,8<3[4:1],1x,{4}3-7[8:1]*-8[8:1],B3f/E3,
{12}8/2-6[8:1],{24}3,4,{12},{8}2/5v2>4[32:7]*v8<6[32:7],7,{4}5q1[8:1]*p1[8:1],B5f/E6/E5,
{12}2/8qq7-1[4:1],{24}6,5,{12},{8}8/4qq5b[4:1],2,{4}4-8[8:1],B4f,
{8}1-5[8:1],8,7-3[8:1],6,5-1[8:1],4,3,2,
8/A4f,2/A6f,7/A3f,4/A8f,{4}A1f/5pp4[4:1],4/5,
Cfh[4:1],{8}8b-5[8:1],7,4/8-3[8:1],2-7[8:1],8x<5b[8:1],2x,
8>3[8:1],1,8p4b[8:1],7,8q4[8:1],1,8<1[8:3],7,
{2}8xh[8:3],{8}1p8[16:3],8,1>8b[8:3],2,
{2}1xh[8:3],{8}3/8,5/6,{12}2,{24}5-1[8:1],4,,8/2,
{12},5,,7,{24}4-8[8:1],5,,1/7,{12},4,,3,{24}8-4[8:1],1,,5<4z8b[16:7]/3>5s1[16:7],
{12},8/Cf,,,,,,,,{8}5-1[8:1]/6-2[8:1],7/8,
{4}5/6,{12}4-8[8:1]/3-7[8:1],{24}2,1,{12},{4}3/4,{8}1/5,7/3-8[8:1],
4,3/6-1[8:1],5,6/2,{16}4qq2[8:1]*pp6[8:1],{8},{16}4/Cf,{4},{12}2,
{24}3,4,,2,{12}1,{24}5,6,,8,{12}7,{24}2,1,,8/3,{12},{24}4,5,,2,
{12}8,{24}6,5,,7,{12}8,{24}6,1,,5,{12}4-8[12:1],3/7,{24},5/4,{12},{24}7x,7x,,1,
{8}6,Cf/7v4V68[6:1],,1w5b[8:1],2,B1f/E1/E2,,7/3-5[12:1],
1,3/7-4[8:1],8-3b[8:1],7pp5[4:1],{4}E1f,B4/B3,
7bx/2bx-5[8:1],{8}2<7[8:1],6,2-6[8:1],4,2-4[8:1],8,
5-1[8:1],6,2-6[8:1],2,8-4[8:1],7,5V31[8:1],5,
{4}6V82[8:1],2x<5[8:1],{16}2x/4x-8[12:1],{8},{16}4/7xpp5b[2:1],{4},B3f/B4,
{8}4,2,{16}8bxh[16:3],{8},{16}6bxh[16:3],{8},4bxw8b[8:1],
{1}8bx/Cf,
E
