&title=LibrariA
&artist=ルゼ
&first=0
&des=CupLid vs Ylng
&des_5=CupLid vs Ylng
&lv_5=14+
&inote_5=(190){4},
{8},,,,,,2,
5h[4:1],,4h[4:1],,3h[4:1],,2-5[8:1],
,4-7[8:1],,1,,8,
{4}5h[4:1],
{8}3,4,,2h[4:1],,5h[4:1],,8-4[8:1],
,6-2[8:1],,3,,1,,4,
6,5,{16}3,4,{8}3,2,2,{16}5,4,{8}5,
6,7,{16}3,4,{8}2,6,5,{16}7,8,{8}6,
{16}1,8,2,7,3,6,4,5,8,7,1,6,2,5,3,4,
{8}2,{16}6,5,{8}7,4,{16}3,4,{8}2,{4}1>4[8:1],
1bqq6[4:2],5,5,5,
4-2[8:1],6-4[8:1],1-4[8:1],{8}1,5,
5,{16}3,4,,,2,1,,,3,4,,,2,1,
,,5,6,,,8,7,,,5,6,,,8,7,
{4}8pp3[4:2],4,4,4,
5<7[8:1],3<5[8:1],8p4[8:1],{8}8,1,
2,{16}6,5,,,3,4,,,6,5,,,3,4,
2,1,2,1,{8}3,{16}7,8,7,8,{8}6,{16}1b,2b,{8}3b,
{12}8b,7,6,2,3,4,6,5,6,3,4,3,
8,8,8,2,2,2,7,5,6,3,4,2,
6,5,6,3,2,1,4,5,6,2,3,4,
8,8,8,5,6,5,7,8,7,1,2,3,
{8}4h[8:1]/5,6,7/5,7/5,6,4,3/5,2,
4,1,2/5,3,{16}6,4,6,4,{8}7,3,
2/5,2,4,4,3,{16}5,5h[16:3],,4,{8}4h[16:2],
{1}8b<7-2-6-3<4[4:2]*-5q4[4:2],
{4}8b/1b,{16}4,4,,6,{8}3,3,{16}5,5,,4,
{8}6,6,{16}3,4,,6,5,7,{8}4,{16}3,3,,4,
{8}2,2,{16}6,5,,3,{8}4,2,{16}5,5,,4,
{8}6,7,{16}1,2,,8,7,1,{8}6,{16}8,8,,5,
{8}5,{16}4,4,{4}8b-5[8:1],{8}3,3,{16}2,4,,6,
{8}4,3,{16}7,5,,3,5,4,{8}6,{16}1,1,,8,
{8}8,3,3,5,{16}6,5,6,5,7,3,4,3,
4,2,1,2,{8}1,{16}3,4,{4}3-5[8:1],3/8b<5[8:1],
{8}8,2,{16}3,4,{8}3,2,5,{16}6,5,{8}6,
7,4,{16}3,4,{8}2,{16}5,4,{8}6,{16}3,4,3,4,
{8}2,5,{16}6,4,{8}7,5,8,{16}3,4,{8}3,
2,6,{16}7,8,{8}7,{16}6,3,{8}5,{16}6,5,6,5,
{8}7-5[8:1],4-8[8:1],7,4,6-1[8:1],2-6[8:1],6,2,
8>3[8:1],7,6,5,{16}4,2,4,2,{8}5,3,
{16}7,7,,3,{8}3,{16}6,5,,3,{8}4,{16}E7,E3,
{32},,,,8,
7,6,5h[16:3],{8}3,{32}2,3,4,5h[16:3],{8}6,{32}7,6,5,4h[16:3],{8}2,{32}8-5q4[4:4],1,2,3,{8}7-2-6-3<4[8:7],
{1}8b,
,1-5[4:4]/7-3[4:4],
,8-4[4:4]/2-6[4:4],
,1-6>5[4:4]*-5qq5[4:4],
{2},4bqq5[4:2],
{4}6,{8}6,4,{4}6,{8}6,5,
{4}6,{8}6,7,{4}6,{8}6,8,
{4}6>3[8:1],6/3,{8}2,4,{4}2>4[8:1],
2p8[4:1],2,{8}5,7,{4}5,
{8},3b>8[8:1],4,5,6x-4[8:1],6x-8[8:1],6x,6bx,
,,{4}8b,1>4[8:1],1p5[8:1],
{16}3,,,4,,,{8}5,{4}7b-4[8:1]/6b-2[8:1],7b/6b,
{8}1/8,1,2,4,{16}3,5,3,5,4,6,4,6,
{8}C,{16}7,8,{8}7,6,{16}2,1,{8}2,{4}3<6[8:1],
{1}3>4[4:2]b/7,
{2}1bp1[2:1],1s5[4:1],
{8}8h[4:1],,,6/5,{2}6-8[8:1]/5-1[8:1],
{16}2,,,3,,,{8}4,5-2[8:1]/6,,,8,
8-4[8:1],,,3,{4}5-1[8:1],{8}6,6,
{2}2<4[4:1]b,8p4[8:1],
{8}3h[4:1],,,6/4,{2}6-3[8:1]/4-8[8:1],
{16}1,,,2,,,{8}3,4/6-2[8:1],,,7,
{16}7b,,,1b/8b,,,{8}2b,{4}1b-5[8:1],8/1,
8,{8}7b,6h[4:1],,5b,{4}4h[4:1],
{8}3b,2>5[8:1],,2b/6,{16}7,7,{8}4,6,1,
8b,6h[4:1],,4b,{4}3h[4:1],{8}2b,8h[4:1],
,6,{16}5x-7[12:1],,,3x-5[12:1],,,{8}8x,8x,{16}4,5,
{1}4b<2p1s5[4:5],
{4},,,8b<3[4:3],
1,1,1,1,
8,7,{8}3,4,{4}2pp5[4:2],
7,7,{8}6,4,{4}5,
{8}3,4,{4}2-5[8:1],2-8[8:1],4>6[4:3],
5,5,4,4,
{16}3,,,7,,,{8}5,6,6,{12}3,2,1,
{16}7,6,4,5,7,6,4,5,7,6,4,5,7,6,4,5,
7,6,4,5,5,5,5,5,5,5,5,5,5,5,5,5,
{4}5b-7[8:1]*-3[8:1],5,{16}2,1,,7,{4}8,
{16}2,1,{8}3,{16}7,8,{8}6,{16}4,5,4,5,{4}4b,
{8}8b,8,{16}3,4,,6,5,7,{8}7,4,{16}3,4,
{8}2,5,{16}6,5,{8}7,{16}4,5,{8}3,{24}6,5,6,5,,,{8}7,
{16}3,4,,3,,5,{8}4,6,{24}3,4,3,4,,,6,
5,6,5,,,2,4,3,4,,,6,5,7,5,,,2,4,1,4,{48},,,,{16}8,
8,8,8,{8}8,{16}1,2,1,3,{8}1,{16}7,8,6,8,
{8}5,{16}3,4,3,2,{8}3,{16}6,5,7,1,5,4,6,5,
7,3,4,2,5,4,6,5,7,2,{8}5,4/6,4/6,
3-8[8:1],7-3[8:1],3,7,1,{16}5,4,,6,,6,
{8}5,7,{16}3,4,,5,4,6,{8}5,7,{16}3,4,
{8}3,2,{16}5,4,{8}6,{16}4,5,{8}3,{24}8,1,8,1,,,{8}7,
{16}2,4,,3,,3,{8}6,6,{24}4,5,4,5,,,3,
4,2,4,,,6,5,7,5,,,1,2,1,3,,,7,4,6,4,{48},,,,{16}3,
4,2,4,{8}1,{16}6,5,7,5,{8}8,{16}3,4,2,4,
{8}1,{16}6,5,6,4,{8}5,{16}3,4,2,4,3,5,4,6,
5,7,1,4,3,5,4,6,5,7,4,5,3,4,2,6,
{2}1s5[8:1],{4}3-6[8:1]/7-2[8:1],3/7,
{16}3,4,{8}3,{24}6,5,6,5,{48},,,,{16}4,5,{8}4,{24}3,4,3,4,{48},,,,{16}7,
5,{8}7,{24}2,4,2,4,{48},,,,{16}5,4,{8}5,{24}7,5,7,5,{48},,,,{16}2,
1,{8}2,{24}3,4,3,4,{48},,,,{16}7,8,{8}7,{24}6,5,6,5,{48},,,,{16}3,
4,{8}2,{24}5,4,5,4,{48},,,,{16}6,5,{8}7,{24}4,5,4,5,{48},,,,{16}2,
1,{8}3,{24}3,4,3,4,{48},,,,{16}7,8,{8}6,{24}6,5,6,5,{48},,,,{16}4,
5,{8}4,{24}6,5,6,5,{48},,,,{16}3,4,{8}3,{24}5,4,5,4,{48},,,,{16}4,
5,{8}4,{24}3,4,3,4,{48},,,,{16}6,5,{8}6,{24}4,5,4,5,{48},,,,{16}2,
4,2,4,{8}3,{16}6,5,{4}7bw3[8:1],7b,
{16}3,4,3,4,{8}2,{16}6,5,7,3,4,3,{8}4,{16}2,6,
5,6,2,1,{8}3,{16}5,4,6,3,4,3,{8}4,{16}2,2,
6,5,7,4,{8}5,{16}3,4,2,1,2,1,{8}3,{16}5,4,
7,8,7,8,{8}6,{16}3,4,,6,{8}5,{16}3,4,,2,
3,3,3,3,3,3,{8}3,{16}5,4,6,5,{8}7,{16}6,6,
6,6,{8}6,{16}4,5,3,4,{8}2,{16}5,4,6,5,{8}7,
{16}1b,1,1,1,1,1,1,1,1,1,1,1,{8}1,8b,
{16}7,7,7,7,{32}6-1[8:1],5v2[8:1],4,3,2,1,8,7,{8}6/5,{16},,,,8,1,
1b,1,1,1,1,1,1,1,1b,1,1,1,1,1,1,1,
1b,1,1,1,1,1,1,1,1b,1,1,1,1,1,1,1,
{32}8b,7,{16}6,5,1,1,1,1,1,{32}2b,3,{16}4,5,1,{32}8b,7,{16}6,5,1,
1,1,1,2,4,3,6,5,7,4,5,3,1w5[8:1],1,8,8,
{1}1b>8[2:1]b,
E
