&title=SUPERNOVA
&artist=USAO
&first=0
&des=Guilty
&lv_5=14+
&inote_5=(212)
{1},
{8}3h[4:1]/4,,,5h[4:1]/2,,,1h[4:1]/6,,
{8}8,8,1,8,1,,8,1,
{8}8h[4:1]/2,,,3h[4:1]/7,,,6h[4:1]/4,,
{8}5,,5,5,6,5,6,,
{8}6h[4:1]/5,,,4h[4:1]/7,,,8h[4:1]/3,,
{8}2,2,1,2,1,,2h[2:1]/1,,
{8},,8,2/8,,7,7,1,
{8}1,,2,2,5,5,3,3,
{8}8h[8:1]/3,,8h[8:1]/3,,8h[8:1]/4,,8h[8:1]/5,,
{8}4h[8:1]/8,,4h[8:1]/7,,4h[8:1]/6,,4h[8:1]/5,,
{8}5/4,5,3/4,3,6/4,6,2/4,2,
{8}E6,,B7/E7,,E3/B2/B1,8b,8b,,
{8}1/2,,1/8,,7/8,{16}1x,8x,{8}1x,2x,
{8}3/8,,4/7,,5-2[8:1]/6,,5/6,,
{16}8,7,6,5,4,3,2,1,4/8,5,6,7,8-4[8:1],1,2,3,
{8}4xw8[2:1],,,,,,,,
{8}2/5,3,4,3,2/5,4,3,4,
{8}2/5,,2/5,,3/4,5,4/6,7,
{8}5-3[8:1],,5,,5^8[8:1],,5,,
{8}2,1,2,1,3h[4:1]/8,,B5/B4/E5f,,
{8}2/7,1,2/7,8,1/7,,1/7,,
{8}7,6/5,4,3/5,2,2,5,5,
{8}4/6,4,3/5,7h[8:3],,5,5,7,
{8}7/8,1,2/8,3,2-5[8:1]/4,,2b/7b,,
{8}7h[4:1],,8,,1/7,2,3/7,4,
{8}7h[4:1],,6,,7/5,4,3/7,2,
{8}7h[4:1],,8,,1/7,2,3/7,4,
{8}4b-2[8:1]*-1[8:1],,4-6[8:1]*-7[8:1],,4-8b[8:1],,4b,,
{8}5x,5,3,3,4/2,,1,1,
{8}8/2,,6/5,7,6/5,4,7/5,8,
{16}4hbx[256:1],8,4,8,3,7,3,7,2,6,2,6,1x-4[8:1]/5xv8[8:1],,,,
{8}1b/5b,,,,,,,,
{8}6-8[8:1],,2,,1-5[8:1],2,3,4,
{8}6-8[8:1],,2,,1-5[8:1],2,3,4,
{8}6-8[8:1],,2,,1x-5[8:1],2,3,4,
{8}6,7,4,3,7-5[8:1]/4,8,1/7b,,
{8}2x-4^5[8:1],,6,,5x-1[8:1],6,7,8,
{8}2-4^5[8:1],,6,,5x-1[8:1],6,7,8,
{8}2-4^5[8:1],,6,,5x-1[8:1],6,7,8,
{8}2,1/3,,1/3,2-7[8:1]*v5[8:1],,,,
{8}3hx[4:1],,{16},,3,4,2,,,2/4,,,2/4,,
{16}3,4,3,4,2h[4:1],,,,1,,8,1,8,1,8,,
{8}1/7h[4:1],,{16},,6,5,7,,,7/5,,,7/5,,
{16}6,5,6,5,7h[4:1],,,,8,,1,1x,8<4[4:1],,,,
{8}4>8[4:1],,8<4[4:1],,4>8[4:1],,8<4[4:1],,
{8}4>8[4:1],,8<4[4:1],,4V28[4:1],,8,,
{16}E1,E8,E7,E6,E5,E4,E3,E2,E1,D8,D7,D6,D5,D4,D3,D2,
{8}8x-5[8:1],,8-3[8:1],,8,,7,7b,
{8}2-4[8:1],,2/7-1[8:1],7,5^2[8:1],,6,,
{8}7-4[8:1],7,2^7[8:1],2,6,,5/6,4,
{8}3-5[8:1],3,6-2[8:1],,1,,8/4,1,
{8}2-5[8:1]/6,5V38[4:1],2,7,7-4[8:1],,7b/8bx,,
{8}2,{16}2,4,{8}2-5[8:1],,2/7-4[8:1],,3-8[8:1]/7,,
{8}3/6-3[8:1],,2^5[8:1]/6,,2,{24}6x,7,8,{8}1,{24}5x,4,3,
{8}2/7x,,2x/8x-5[8:1],1,8,{16}1,2,{8}3x,3x,
{8}2-5[8:1],6,2,8-4[8:1],1,8,3-8[8:1],5,
{8}3,,7,7,8,7,8-4[8:1],,
{8}1/8,,2h[8:5],,3b,3b,3b,3b,
{8}4^7[8:1]*^1[8:1],,4w8[8:1],,,,2x-5[8:1]/6x-2[8:1],,
{8}2/6,,8x-5[8:1]/4x-1[8:1],,8/4,,2x<2<2p8[8:15],,
{8}Cf,,,,,,,,
{8},,,,,,,,
{8}6h[1:1],,,,E6,,,,
{8}5h[1:1],,,,E5,,,,
{8}4h[1:1],,,,E5,,,,
{8}3h[1:1],,,,E4,,,,
{8}7^4[4:3],,,,B6,,,,
{8}8p4[4:3],,,,C,,,,
{8}1q5[4:3],,,,C,,,,
{8}2^5[4:3],,,,B3,,,,
{8}7,,7,,7/3h[4:1],,7,,
{8}5,,5,,5/2h[4:1],,5,,
{8}3,,3,,3/1h[4:1],,3,,
{8}1,,1,,1/8h[4:1],,1,,
{8}7,,7/1,,7/1-3[8:1],,7,,
{8}5,4,5,,5/4,,5-7[8:1],,
{8}3,,3/8,8,3,8,3/8,8,
{8}2-5[8:1],1-6[8:1],2,1,D3/A2/A3/B2/B3/E3f,,,,
{8}3xh[4:1],5h[4:1],,4,4h[4:1]/5,,6h[4:1],4h[4:1],
{8},5,5h[4:1]/4,,E4,B3,B2,E2,
{8}6h[4:1],4h[4:1],,5,5h[4:1]/4,,3h[4:1],5h[4:1],
{8},4h[4:1],6h[4:1],,3h[2:1],,4bx,,
{8}6h[4:1],4h[4:1],,5,5h[4:1]/4,,3h[4:1],5h[4:1],
{8},4,4h[4:1]/5,,E6,B6,B7,E8,
{8}3h[8:3],,6,6,4h[4:1]/5,,5,4h[4:1],
{8}6,6h[4:1],5,5h[4:1],4,4h[4:1],3,3,
{8}2,1,7-4[8:1],8,,,2,1,
{8}7-4[8:1],8,,,1,1,1,1,
{8}7,8,2^5[8:1],1,,,7,8,
{8}2^5[8:1],1,7,8,1-5[8:1],,2,,
{8}3,3,4,4,2/5,,6,5,
{8}4/7,,1,8,2/7,8,1,8,
{8}2-5[8:1]/7,2,8-4[8:1],8,3-1[8:1],3,7-4[8:1]*-3[8:1],,
{8},,,,,,,,
{8}2/4,2,2/4,,2/5-7[8:1],,2,,
{8}8-4[8:1]/2,,2,,2/5-7[8:1],,3,,
{16}4,8,4,8,3,7,3,7,2,6,2,6,1,5,1,5,
{8}1hx[4:1],,2hx[4:1],,3hx[4:1],4b,4b,,
{8}2q6[8:1]/8,,2/8p4[8:1],,2/8,,3,{16}3,4,
{8}3-8[8:1],,3/5-8[8:1],,5/2,2,3,3,
{8}4/8,4,3/7,7,{16}2/6,7,8,1,5,6,7,8,
{8}5-1[8:1]/1,,5w1[8:1],,5,,6b/4b,,
{8}6/5,,4/5-7[8:1],3,5/2-6[8:1],,2/8,,
{8}1-5[8:1],8-6[8:1],1,8,2,,3,4,
{8}5/6,4,3/4-8[8:1],,1,,2,2,
{32}8b,7b,6b,5b,4b,3b,2b,1b,{8}8hb[4:1],,2x-6b[8:1],,2b/1b,,
{8}8x/4x-8[8:1],3,2^5[8:1]/4,,2/1,,7,,
{8}7/8,6,5-1[8:1]/4,3,5b/6,,5-1[8:1],2,
{8}5b/4,,2,1-6[8:1]/7,,1/5,4^7[8:1],8,
{8}4,1,1,2/8,3,4/6,7-3[8:1],,
{8}1b/7b,,2^5[8:1],,2b/1b,,3/8-4b[8:1],,
{8}1-3b[8:1]/8b,,1b/7x,,7-3[8:1]*v4V61[4:1],,7b,,
{8},,3^6[8:1]/7,7,8h[4:1],,1,2,
{8}3-1b[8:1]/7,,4-8b[8:1]/3b,,5-7b[8:1]/4b,,5b/1,2,
{8}3bh[4:1],,5,,8h[4:1]/4,2,2,,
{8}3h[4:1]/4,,6,,8h[4:1]/2,4,4,,
{8}6h[4:1]/5,,3,,1h[4:1]/5,7,7,,
{8}6h[4:1]/5,,3,,1h[4:1]/7,5,5,,
{8}3/4,5,6,6,5/7,,8,8,
{8}1/7,,2/4,3,2/4,8,2/4,3,
{8}2b/4bh[4:1],,{32}2b,3,4,5,6,7,8,1,2bx/6b,5,4,3,2,1,8,7,{8}6bv3b[8:1]/2b-7[8:1],,2bw6[4:3]/6b/Cf,,
{8},,,,,,,,
