&title=海神
&artist=DJ TOTTO
&wholebpm=159
&first=-1.81
&des=1就
&lv_5=12+
&inote_5=
(159){1},
(79.5){8},,,{48},,,,3,2,{8}
1,,,{48}6,,,1,,7,{8}8,,,{48}8,,,3,,1,
{8}2,{48},,,,,8,
{8}1,{48}27,,,,,5,
{8}4,,,{48}2,,,5,,3,
{8}4,{48},,,,,2,{16}1,,,{32}7,6,
(95){4}5h[999:1],
(127)5h[999:1],
(143)5h[999:1],
(172)5h[999:1],
(192)5h[999:1],
(210)5h[999:1],
(213)5h[999:1],
(201)5h[999:1],
(147)5h[999:1],
(60){8}5h[999:1],(52.6)5h[999:1],(159){16}
6,5,,5,
,,5,4,
,3,4,3,
,7,,4,
5,,5,,
2,1,2,1,
,3,4,1,
,7,,7,
8,6,,6,
,,2,1,
,5,6,5,
,7,,3,
4,,2,,
6,4,6,4,
,1,2,8,
3,7,4,6,
5,6,,1,
,,6,5,
,3,4,3,
,6,,8,
7,,7,,
2,1,2,8,
,2,4,2,
,6,,6,
5,7,,7,
,,3,4,
,2,1,2,
,8,,8,
3,4,2,5,3,4,1,8,5,6,4,7,5,6,1,8,
2b/7b,,,,,,,,
4,,4,,48,37,26,15,
48,,6,,6,,1,2,34,,45,,56,,,,
26,,3,4,3,,6,5,8,1,7,2,6,,,,
48,,12,,12,,8,7,56,,54,,34,,,,
37,,6,5,6,,3,4,1,8,3,6,2,5,4,7,
1,,78,,16,,3,4,25,,78,,16,,,,
56,,2,1,2,,7,8,6,1,7,2,8,,,,
27,,16,,38,,8,1,27,,36,,4z8[8:2]/5s1[8:2],,45,,
4b/5b,,,,
,,,,
,,2,,2,,2,,
25,,16,,8/7-5[8:1],,7-4[8:1],1,7-3[8:1],,,,,,1,,
56,,6,5,7,,1,7,2-5[8:1],4,3,5,2,,7,,
47,,38,,12,,4,8,3,7,2,6,1,,1,,
36,,4,5,3,6,2,7,1,6,3,8,2,7,4,5,
4,,38,,1/2-4[8:1],,2-5[8:1],8,2-6[8:1],,,,,,8,,
34,,3,4,1,,8,2,7-4[8:1],5,6,4,7,,2,,
45,,36,,36,,8,1,27,,36,,45,,45,,
3,6,2,7,1,8,1,8,{32}1,2,3,4,5,6,7,8,1,2,3,4,5,6,7,8,
{8}
1>6[4:1],6,7,8,1,,,,
5<2[4:1],2,3,4,5,,,,
4>8[4:1],8,7,6,5<1[4:1],,1,,
4,3,2,{16}8z4[4:1],1,7,,,,
,,,,
1,7,1,7,2,6,3,5,4^1[8:1],,8,,7,,6,,
4,6,4,6,3,7,2,8,1^4[8:1],,5,,6,,7,,
8^5[8:1],,5,,4,,3,,2h[4:1],,,,1,8,7,6,
15,,2,,6,,4,,8h[4:1],,4,,4,,6,7,
8,1,2,3,7,8,1,2,3,,8,,6,,4,,
7,6,5,4,8,1,2,3,4,,8,,1,,7,,{12}
3,4,1,6,5,8,3,4,2,6,5,7,
2,1,4,7,8,5,4,6,1,5,3,8,{16}
1h[2:1],,,,,,,,4b-7[8:1],,,,2b-5[8:1],,,,
8b-3[8:1],,,,6b-1[8:1],,,,8b,,,,7,4,5,2,
8v5[8:1],,,,8,,4,3,2-6[8:1],,1-5[8:1],,2<4[4:1],,1,,
2,,,,8h[8:1],,1,8,2,7,3,6,4,5,4,5,
2h[8:1],,4,3,7h[8:1],,5,6,2>6[8:1],,6<2[8:1],,2,,,,
4w8[8:1],,,,4,,,,6,7,8,1,4,5,6,7,
8w4[8:1],,,,8,,,,2/6h[8:1],,3,27,1^7[8:1]/8,,2/7<3[8:1],,
6h[4:1],,,,,,15,26,37,,4v7[8:1]/8,37,6/2v5[8:1],,,,
,,,,48,37,26,15,4h[4:1]/8h[4:1],,,,,,15,26,
7-2[8:1]/3-6[8:1],,,,3b-8[8:1]/7b-4[8:1],,,,3b/7b,,,,15,26,37,48,
5/1v4[8:1],,,,1,,5,6,7-3[8:1],,8-4[8:1],,7>5[4:1],,8,,
7,,,,1h[8:1],,8,1,7,2,6,3,5,4,5,4,
7h[8:1],,5,6,2,,2,,7>3[8:1],,3<7[8:1],,7,,,,
1w5[8:1],,,,1,,,,3,7,4,8,2,6,1,5,
2h[8:1],,6,5,8,,3,4,1,,6,7,8-4[8:1],,4,3,
2b-5[8:1],,5,6,7b-4[8:1],,3,2,1b-5[8:1],,6,7,8b,,8,,
3h[8:1]/7h[8:1],,,,37,26,15,48,3h[8:1]/7h[8:1],,,,48,15,26,37,
48,,37,26,1^4[8:1]*^6[8:1]/5,,37,,1w5[8:1],,,,1b,,,,
4,3,,1,
,,3,4,
,,2,1,
,3,,3,
4,,4,,
,,2,1,
,3,4,3,
,1,,3,
6,5,,5,
,,6,5,
,,7,8,
,6,,6,
5,,7,8,
,6,5,6,
,1,8,7,
6,5,4,3,
8,1,,1,
,,4,3,
,,1,2,
,4,,,
2,,2,,
,,4,3,
,1,2,1,
,3,,7,
8,7,,7,
,,5,6,
,,8,7,
,7,,5,
6b,,8,7,
,5,6,5,
,7,8,,
6,,6,5,
8-6[8:1],,,1,1/8-5[8:1],,2-6[8:1],,8-4[8:1],,2,,8,,3,2,
1-3[8:1],,,8,8/1-5[8:1],,7-3[8:1],,1-4[8:1],,7,,1,,5,6,
7-5[8:1],,,2,2/7-3[8:1],,1-5[8:1],,7-4[8:1],,1,,7,,8,1,
2-4[8:1],,,7,7/2-6[8:1],,8-4[8:1],,2-5[8:1],,8,,2,,6,7,
8-5[8:1],,,1,1/8-4[8:1],,2-6[8:1],,8<4[8:1],,2,,8,,3,2,
1-4[8:1],,,8,8/1-5[8:1],,7-3[8:1],,1>5[8:1],,7,,1,,6,7,
8,,34,,67,,12,,45,,78,,23,,56,,
7,3,6,2,5,1,4,8,6,3,8,1,5,4,8,1,
{4},{16},,6h[999:1],4h[999:1],
{1}1b,,,
E
